<?xml version="1.0" standalone="no"?>
<!DOCTYPE svg PUBLIC "-//W3C//DTD SVG 1.1//EN" "http://www.w3.org/Graphics/SVG/1.1/DTD/svg11.dtd" >
<svg xmlns="http://www.w3.org/2000/svg" xmlns:xlink="http://www.w3.org/1999/xlink" version="1.1">
<metadata>
Created by FontForge 20170731 at Sun Apr  9 18:24:24 2017
 By Aleksey,,,
Philip Trautmann COPYRIGHT PD FONTS 2017
</metadata>
<defs>
<font id="coffee+teademo-Regular" horiz-adv-x="462" >
  <font-face 
    font-family="coffee+tea demo"
    font-weight="400"
    font-stretch="normal"
    units-per-em="1000"
    panose-1="2 0 6 3 0 0 0 0 0 0"
    ascent="800"
    descent="-200"
    x-height="482"
    cap-height="715"
    bbox="-44.4444 -267.5 883.571 841"
    underline-thickness="50"
    underline-position="-200"
    unicode-range="U+000D-3000"
  />
<missing-glyph horiz-adv-x="364" 
d="M66 33h199v600h-199v-600zM33 0v666h265v-666h-265z" />
    <glyph glyph-name=".notdef" horiz-adv-x="364" 
d="M66 33h199v600h-199v-600zM33 0v666h265v-666h-265z" />
    <glyph glyph-name="uni0000" horiz-adv-x="0" 
 />
    <glyph glyph-name="uni0000" horiz-adv-x="0" 
 />
    <glyph glyph-name="uni000D" unicode="&#xd;" horiz-adv-x="333" 
 />
    <glyph glyph-name="space" unicode=" " horiz-adv-x="180" 
 />
    <glyph glyph-name="exclam" unicode="!" horiz-adv-x="200" 
d="M78.5 165q-3.5 5 -4.5 7v1l-1 2h-1v2v3v0h-1q-1 0 -1 2v2q-8 24 -14 96l-2 2v6v6v5l-1 6q0 4 1 6v6q0 2 -0.5 5t0.5 8v15q2 6 2 13q0 12 -2 21l-1 17l-1 35l-1 9l1 13q1 9 1 20v3q-1 1 -1 4t1 5v3v5q0 3 -1 5v2l1 2l1 1l1 20v1h-1l2 6q1 7 1 63q0 7 1 12q1 4 1 9l-1 2
q0 4 2 6l3 36q1 2 1 4.5t1 4.5l1.5 12t1.5 7l3 16q1 0 1 2v2l1 -1v3q0 1 2 3h1l2 2q0 1 2 3q1 0 1 1l1 1q1 2 8 2t8 -2q0 -1 4 -2l4 -4h2v0l1 -2l1 -1l7 -7q10 -8 10 -12q0 -47 -2 -60l-2 -22v-10v-12q-2 -14 -2 -53v-2v-3v-4v-2q2 -20 1 -43q-1 -17 -0.5 -26t0.5 -10
l-4 -40l2 -8l2 -2q2 -10 1 -18q0 -4 -1 -5q-2 -2 -2 -5l2 -2v-9v-12l-1 -6h-2q4 -4 2 -17q-1 -16 2 -40v-3q0 -3 1 -4l1 -6v-4l-1 -6q0 -4 2 -18q2 -2 2 -7q2 -4 5 -8l1 -10q0 -5 -2 -23l-1 -17q-1 -1 -0.5 -3t-0.5 -3q0 -1 -9 -3l-2 -4q-1 -3 -3 -3q-4 1 -9 1l-8 -1
q-8 0 -14 3q-3 0 -6.5 5zM107 89h1v1v0v0h1h2v0v1l1 -1v1h1h1q11 1 19 -8t11 -21l1 -2v-1v-2v0q0 -1 -0.5 -1.5t0.5 -1.5t1 -5l1 -1v-2v-3l1 -1q1 -1 0.5 -1.5l-0.5 -0.5v-3l-1 -2l-2 -11l-2 -2l-2 -2q-5 -14 -8 -16.5t-4 -2.5l-10 -2h-1h-1h-2l-2 -1h-1h-1h-3v-1v0h-7
q-3 -6 -5 -6.5t-3 -0.5l-2 -1h-1h-1v-1v1v0v-1q-1 0 -1 1v0q-4 0 -13 10v0l-1 1h-1v0v0q-5 1 -10 6l-1 -1v0l-2 5q-10 27 -9 44l4 13l-1 2l4 3l6 4l1 1l2 4l1 2q2 2 3 2v0v0h1v1h1h2h3v0h1l9 -2v1h1v-1v1h1h1q1 1 1.5 0.5t0.5 -1.5h1l1 -1q6 2 7 1h1v2q3 2 4 3z" />
    <glyph glyph-name="quotedbl" unicode="&#x22;" horiz-adv-x="320" 
d="M89 506q-2 0 -5 2l-3 2h-1l1 1h-1v0v1v0h-1v1v1q-5 5 -7 33l-1 1v2v2v2q-1 0 -1 1v3l1 1q0 4 2 10v2v3q0 11 -1 12v5l-1 7q0 4 1 7v6v2q-1 0 -1 1t1 1v2q1 0 1 1t-1 2l-1 1l1 1h1v7h-1l1 2q1 2 1 8q0 8 -1 13l1 4v3h-1v2h1l4 13l2 3v4l1 2q0 3 1 4l2 2v1v1h1
q0 -1 0.5 -0.5l0.5 0.5v1h1v0l4 2h2v1h7h7l4 -1l4 -1q0 -1 1 0l3 -1q0 -1 0.5 -0.5t0.5 -0.5q0 -2 6 -2q8 -3 9 -5t1 -13q0 -4 -1 -7l-2 -8q0 -2 1 -3v-4v-10l-1 -8v-1v-1l1 -1v-1q1 -2 1 -14l-1 -12v-1l-2 -12q0 -1 1 -2.5t2 -1.5q1 -2 1 -6v-0.5t-1 -0.5l-2 -2l1 -1v-2v-5
l-1 -2h-2q2 -1 2 -5q-1 -7 0 -14v0v-2v-1v-1v-2v-2q-1 -2 -0.5 -3.5t0.5 -2.5l1 -1q0 -1 1 -1q0 -2 2 -2l2 -1q-1 -4 -2.5 -9.5t-3.5 -7.5q-1 0 -1 -1t-1 -1l-8 -1q-3 0 -3 -1q0 -2 -2 -2zM208.5 479.5q-1.5 0.5 -2.5 0.5l-5 2l-1 1v1h-1v0v1h-1q-1 0 -1 1v0q-12 10 -20 38
h-1q-1 0 -1 3v3q-1 0 -1 1q-1 1 -1 3q-2 0 0 2v2v7v5q0 2 1 3v3l-2 15l-1 15l1 10v7v2v1v1l1 2v4l-1 1q0 1 1 1h1l2 8h-1h-1l2 3q2 4 5 25l1 4l1 4l-1 1l1 1l1 1l7 14q0 2 1 4t2 3q1 0 2 3q2 5 4 5v1q0 1 1 1h1v0q0 1 1 1h1h1l3 1h1l1 1q3 0 7 -0.5t6 -1.5q1 -1 3 -1t2.5 -1
t1.5 -1q0 -1 1 -1h1v-1q0 -1 0.5 -0.5t0.5 -0.5l6 -3l5 -3q1 -1 1 -3q0 -14 -3 -21t-3 -12l-1 -3q0 -4 -1 -7l-2 -13v-1v-1v-2v-1q1 -1 1 -6t-1 -9l-1 -14q0 -3 -2 -11v-4v-1t1 -1q2 0 2 -2q2 -2 2 -6q-1 0 -1 -1t-1 -1t-1 -1l1 -1v-1t1 -2v-5q0 -2 -1 -2h-3q4 0 4 -6v-3
q0 -3 2 -11h1v-2v-1t1 -1v-2q-1 0 -1 -2l3 -6h2q0 -2 2 -3l2 -1q3 -2 2 -10l-1 -7l-2 -2l-7 -3l-1 -2l-1 -2l-27 -6q-1 -1 -2.5 -0.5z" />
    <glyph glyph-name="numbersign" unicode="#" horiz-adv-x="620" 
d="M556 432q-1 -2 -4 -3t-4 -1h-2h-1v-1h-1h-2h-1h-1q-11 -2 -71 -4h-2q-1 -1 -4 0q-4 0 -5 -1h-3l-6 -24q-8 -22 -9 -28l-18 -53q-1 -1 -1 -4v-6v-4l-6 -24l-3 -6q-1 -1 -3 -7v-3q-2 -4 -3 -9h11h3h3q2 0 3 1h2h4q1 -1 3 -1l8 -1l8 1h3h3l7 2l27 -2q14 -1 15 -3q1 -1 5 -1
q1 0 1 -4l3 -1q2 0 3 -1v-1l-2 -4q-2 -5 -4 -7t-7 -3l-5 -1h-1h-2h-1h-1h-2v-1l-2 1h-1q-6 -1 -43 -1h-33l-2 -1h-4h-5h-3h-5h-1v-4q0 -9 -5 -20q-9 -24 -16 -54l-2 -4l-2 -10q0 -4 -4 -11l-2 -7q-6 -18 -7 -27q-2 -4 -2 -11q-1 -3 0 -7v-5q-1 -9 -16 -46l-11 -22
q-1 -1 -2.5 -4.5t-4 -3.5t-6.5 1l-5 -5l-3 -5l-9 5q-2 1 -8 3.5t-9 8.5q-3 1 -3 12v9l1 2l1 3h-1q0 2 1 3v2q-1 0 -1 1l1 2l1 3q3 28 33 134v4l2 9l3 7q0 5 3 14l3 9l3 8l3 8h-11q-7 -1 -15 -1h-15h-14h-3h-3h-3h-3h-4h-4h-1h-1h-2q-9 0 -15 1v-1l-5 1h-21q-1 0 -1 -1l-2 1
v-3q0 -8 -4 -19q-8 -20 -15 -46q0 -3 -1 -5l-2 -5v-4q0 -2 -1 -3l-2 -7l-3 -6q-4 -10 -6 -25v-4q-1 -2 -1 -6q-2 -3 0 -5q1 -1 1 -3q0 -10 -14 -44l-10 -23l-4 -6q-2 -2 -9 -1l-3 -3l-4 -5q-4 1 -13.5 5.5t-14.5 8.5q-3 5 -3 12v10q-2 0 0 2q1 1 1 3h-1q0 2 1 2v3h-1l1 2v3
q3 29 29 125v2q1 1 3 7l2 8q0 3 1 5l2 7l2 7l3 7q1 1 1 2.5t1 2.5l-21 2q-12 0 -18 2h-9q-8 0 -11 1q-4 0 -5 1h-2h-2v1h-2h-2h-2v0l-6 2l-1 1h-1q-1 1 -1.5 3t0.5 3q1 0 3 2l3 2q1 0 1 1v0l2 1h2l18 7h36l20 -2h8l4 7l3 9l7 24q4 13 4 17l12 42l9 23l7 20q0 4 2 10q0 4 4 8
q1 1 1 4h-14h-9h-8h-1h-3h-2q-7 0 -31 2h-8h-8l-15 2h-4h-2h-1v1h-1h-2v0l-1 1q-5 1 -5 2h-1q-1 1 -1.5 3t0.5 3l2 2t3 2v1l1 1h2l13 8l29 1h20q8 -1 18 -1h10h9q3 1 20 1l2 6v1h-1l3 6q10 23 22 70l4 13q3 6 3 10v2l2 4q1 1 1 3q4 13 15 40l4 12q1 4 2 6.5t2 4.5q2 4 8 22
q2 6 3 7l1 2v2q0 1 1 0q1 0 1 2t1 2l3 2l2 4q2 2 3 2l1 1l1 1q15 0 16 -2q0 -1 2 -3q4 -3 4 -6q0 -1 1 -1q2 0 2 -2v-3q-1 1 10 -17q2 -6 1 -9q-7 -36 -19 -70q-8 -22 -9 -25q-2 -16 -7 -24q-3 -13 -9 -30.5t-10 -29.5v-2h14l32 1l36 -1l4 1h3h2h17h3h1q1 1 1 4t2 5l1 2
l7 26h-1l4 7q9 29 20 77l4 13q3 8 3 11l-1 2q1 1 1 2t1 1q1 1 1 3q4 13 14 41l4 12l3 10l3 9l7 17q1 0 1 2v2h1q1 0 1 2t2 2q1 0 1 1l3 3q0 2 2 2l2 1v1l6 1q10 0 10 -3q0 -1 3 -3l4 -4q0 -1 1 -1h2v-2q0 -3 1 -3q3 -6 5 -8q6 -10 6 -13q0 -10 -5 -31t-11 -39q-7 -22 -8 -25
q-1 -8 -3 -15t-3 -11q-2 -10 -9 -32q-7 -21 -9 -33q0 -2 -0.5 -4.5t-1.5 -3.5v-4l-1 -4l-5 -20h9h3h3h3h2h4h4h15h2q2 0 3 1q3 0 4 1h2h5q10 0 18 -1l11 -1q2 0 3 -1t1 -3l2 -1l3 -1zM386 423l-14 -1h-14q-9 -1 -19 -1h-18h-19h-4q-1 -1 -3 -1q-3 0 -4 1h-3h-5l-4 -1h-2
l-2 1h-1q-2 -5 -4 -13.5t-7 -20.5q-12 -34 -12 -38q-1 -1 -18 -44q-1 -1 -1 -4t1 -5q0 -3 -1 -3q-3 -16 -5 -21q-1 -3 -3 -5l-3 -6v-2q0 -3 -1 -4h7h2h2q3 0 4 1h1h32h28l29 -1q1 -1 6 1h1q2 1 7 1l4 8q2 6 7 25q1 5 4 16.5t5 15.5q2 9 5 23t7 26q1 6 8 27l7 24v1v0z" />
    <glyph glyph-name="dollar" unicode="$" horiz-adv-x="453" 
d="M125.5 153q4.5 -10 5.5 -14q1 -1 1 -5l1 -3h1h1l1 -3q0 -4 1 -4h1l1 -4l1 -3q30 -52 53 -72q19 -13 41 -12q4 0 7 1l-6 99l-2 3v9v8q-2 6 -2 15v8v9v23q-1 8 -1 18q-1 2 -1 10v10q0 11 -1 17l-2 20l-4 39q-1 6 -1 15l-12 10l-7 6q-10 8 -16 16q-5 5 -6 5l-14 15l-9 9
q-6 6 -7 9q-15 19 -34 48h-1l-8 16q-8 37 -8 71t7 64.5t19 48.5q7 11 38 33l3 3q8 5 13 6l29 9v10q3 38 4 38v2v4h1v2v4l0.5 1t1.5 1q2 9 3 9v1l1 2q2 1 5.5 2t5.5 0q0 -1 3 -4l3 -6h1h1v-2l1 -4q3 -4 10 -18q2 -6 2 -9v-27h7q23 0 38.5 -8t32.5 -26q15 -17 17 -25l2 -5
l4 -5h-1h-1l3 -5l2 -6v-4q-1 -1 -1 -3l3 -14l-1 -5q-1 0 0 -3v-3q-1 -3 -8 -6.5t-9 -1.5q-1 5 -2 5q-2 0 -3 1q-6 6 -8 10q0 1 -1 0t-1 0q-2 0 -3 4q-1 3 -3 5l-15 14q-10 7 -14 13q-15 22 -23 30q-9 7 -14 8q1 -4 1 -14q0 -11 -1 -18v-33q0 -10 1 -17l1 -15l4 -79v-4v-4
l2 -9l5 -63q2 -43 3 -54v-1q9 -9 13 -12q33 -27 59 -65q2 -4 6 -8q3 -3 7 -9q3 -5 4 -5q13 -22 18 -44q3 -9 3 -13v-3q0 -6 1 -10l2 -5q2 -26 2 -36l-1 -21q0 -3 -3 -12l-1 -3l-2 4q-1 0 0 -4q1 -8 -3.5 -22t-10.5 -21q-28 -40 -71 -66l-2 -26q-2 -23 -3 -26t-1 -9
q-2 -2 -7 -2l-1 -6l-2 -3v-3l-8 3q-7 1 -15 7q-3 3 -4.5 11t-1.5 11v3v2h-1v2v4h-1v2v4q0 5 -1 9q-10 -2 -16 -2q-34 -2 -55 7q-7 2 -20 9q-1 1 -2.5 2t-4.5 2l-13 5q-39 33 -52 71q-10 29 -10 45v16q0 5 6 5h3l1 10q0 3 2 9v1l16 -4q13 -4 19 -9q4 -3 8.5 -13zM294 72
q2 5 5 15q7 15 7 18q5 23 6 48q1 6 1 16q0 8 -1 10q-4 33 -21 68q-7 17 -15 28v-2v-7q-1 -2 -1 -8l1 -3q2 -10 2 -32q2 -9 0 -9h-2q3 -6 3 -26l3 -59q1 -1 1 -6v-6q0 -2 1 -3v-5v-8v-7q0 -10 2 -30v-3q6 6 8 11zM167 620q-7 -24 -7 -59q0 -33 6 -50q4 -16 10 -25
q21 -33 38 -53v1q0 6 -2 14v3q0 3 1 4v2q-1 8 -1 15.5t-1 14.5h-1l1 8l-5 94v16v14l-1 3v5v4q0 27 1 43q-30 -18 -39 -54z" />
    <glyph glyph-name="percent" unicode="%" horiz-adv-x="533" 
d="M125 9v9q0 1 0.5 2.5t1.5 2.5h-1h-1q0 2 1 3t1 3h-1v3l1 2q4 34 35 134v3l3 8l3 8q1 1 1 3t1 4q1 5 6 15l2 7l8 19l7 18q5 7 8 18q2 4 10 26l7 22q14 42 17 48l12 29l9 23l2 6q0 6 4 11l3 4l3 8l2 6v2q1 2 4 5q1 2 11 26h-1h-1l5 8q16 34 34 83l6 14l5 11v3q1 4 5 8
q2 5 22 47l6 12q3 6 12 25l7 13q2 5 4 7q1 0 1.5 2t0.5 3l1 -1q1 0 2 3q0 2 1 3h1l2 1q2 6 6 6l1 1l1 1h2q4 0 8 -1.5t4 -2.5l2 -4q2 -4 2 -7h1q1 0 1 -1v-3v-3l2 -10q3 -10 2 -19q-6 -23 -32 -80q-13 -27 -13 -28l-5 -15l-6 -14q-1 -3 -13 -33q-12 -28 -15 -37l-2 -3
q-2 -8 -2 -9l-2 -4l-21 -55l-19 -49q-8 -22 -16 -37l-7 -14q-2 -2 -2 -11v-3q-1 -7 -8 -24l-3 -6q-3 -3 -4 -6v-3l-4 -14q-4 -9 -6 -15l-4 -7h-2v-2q0 -4 -7 -22q-11 -27 -18 -52q0 -3 -1 -5l-2 -6l-1 -8l-6 -13q-6 -18 -7 -26q0 -3 -1 -5l-1 -6v-7v-5q-2 -11 -15 -44
q-7 -20 -10 -22q-1 -2 -2 -4.5t-3.5 -3t-7.5 0.5l-4 -5l-3 -5q-3 3 -9 6q-4 1 -10 5q-11 5 -11 19zM177 716h2h2h1h2l2 -1v1l4 -2q20 -12 32 -41.5t14 -66.5q1 -1 1 -3v-9l-1 -8v-6v-8q0 -1 -4 -17q-2 -12 -10 -35l-7 -15q-12 -24 -23 -31.5t-33 -8.5q-20 -1 -43 8
q-1 0 -4 1.5t-5.5 3.5t-5.5 5l-4 4l-6 5l-2 4q-7 10 -11 20h-1l-1 7q-6 35 -6 58q0 14 1 20l3 15l3 9v3l3 4q1 1 1 3q9 20 25 39q8 10 22 20t22 13l2 1l2 1v-1q2 0 3 1l2 1h1h1l2 4zM356 -12h-2l-2 1v-1v0l-2 1h-3q-3 0 -4 1q-19 12 -31.5 41.5t-15.5 67.5l-1 2q0 6 1 10v7
l1 7v7l3 17l10 35l8 16q12 24 23 31.5t33 7.5q18 1 43 -7l8 -4l7 -6l4 -4l4 -4q3 -1 3 -4l1 -2q7 -10 11 -20h1l1 -7q6 -36 6 -61q0 -11 -1 -16l-4 -15l-2 -10v-2q-1 -1 -1 -2.5t-1 -2.5l-2 -2q-9 -20 -25 -40q-9 -11 -23 -21t-21 -11l-2 -2h-2h-1l-2 -1l-1 -1h-2h-1
q-1 -3 -2 -3q0 -1 -14 -3zM160 690q-4 -4 -6 -8q-24 -27 -33 -71q-1 -5 -1 -21q-1 -28 4 -48v-2l1 -2l1 -2l1 -2q16 -39 25 -43q6 -3 10 -3q5 0 7 4v3q-1 1 -1 3q0 3 2 11l2 3q1 1 1 3v2l5 20l2 6h2l-1 5l2 15q4 20 2 48v4v5v3q-2 6 -2 10v5q-2 12 -4 19l-3 6q0 1 -1.5 2.5
t-2.5 1.5q-2 10 -1 15v5q0 6 -4 10l-2 2zM368 6l6 8l5 8q12 15 20.5 34t11.5 37q2 10 2 21q0 33 -4 48l-1 2v2q0 2 -1 3l-1 1q-15 40 -25 44q-8 3 -12 3q-4 -1 -5 -5v-3v-3q0 -7 -1 -10t-2 -3l-2 -4l1 -2l-5 -20l-2 -6h-2l1 -5l-2 -15q-4 -20 -2 -48v-4v-5l2 -6v-6
q-1 -4 0 -5q2 -14 4 -19l2 -7l2 -3l2 -1q2 -4 2 -7v-7v-5q0 -5 3 -10l3 -3v1z" />
    <glyph glyph-name="ampersand" unicode="&#x26;" horiz-adv-x="592" 
d="M488.5 425q0.5 -1 -0.5 -1l-2 -1q0 -1 -1 -1v0h-2v0v-1h-1q-6 -6 -24 -7l-1 -1v0h-1h-2l-1 -1q-2 0 -3 1v0h-3h-4h-2h-2h-5l-4 -1l-3 -1h-1q4 -7 6 -22t3 -15v-6v-5v0l1 -1v-5v-5h1h1v-6q0 -5 1 -6q5 -33 5 -68q0 -29 -3 -64q-1 -15 -5 -34q3 -4 7 -9.5t7 -7.5
q2 -4 8 -10q4 -3 5.5 -6t2.5 -4l3 -1q0 -1 1 -2l2 -2l1 -3l28 -36q1 -3 12 -18l12 -15q2 -8 2 -7l2 -1v-1v0v-1v-1q2 -2 1 -3v-1l1 -5l1 -2v-1q-1 -2 -3.5 -5t-3.5 -4l-3 -1q-2 -1 -3.5 -0.5l-1.5 0.5v0l-1 -1l-2 1h-2h-6q-9 0 -12 2q-7 6 -20.5 21t-23.5 29q-5 6 -9 12.5
t-8 10.5q-2 3 -9 10v1q-6 -19 -15 -41l-3 -4q-22 -25 -44 -38q-18 -7 -31 -13q-47 -17 -70 -17q-22 0 -34 1q-49 7 -77 25t-46 47q-16 21 -21 53q-4 16 -4 39q0 40 16 98q5 15 11 26t10 18q7 14 12.5 22t5.5 9q0 2 4 4l4 4q5 8 16 20.5t17 20.5v1l11 10q3 5 16 18
q-5 13 -9 21l-3 8l2 1q-6 5 -10.5 19t-9.5 32l-8 27q0 5 -1 8l-3 8q-1 1 -1 4l-1 15l-1 27v6v5q0 1 0.5 3t-0.5 5q-2 3 0 5q4 24 18 41q10 16 14 18l7 6q2 2 3 0q15 24 32 30q24 8 40 8q32 0 53 -26q14 -19 19.5 -47.5t3.5 -58.5q-3 -32 -11 -57t-27 -50q-25 -34 -45 -56
l11 -20q9 -16 28.5 -45t34.5 -51q1 -3 4 -4q4 -7 8 -11q2 -6 8 -12l6 -9l2 -3l1 -2q2 -4 4.5 -6.5t3.5 -4.5q-2 26 -2 55q0 62 3 83l3 18q0 2 1.5 3t2.5 1h-4h-2l-1 -1l-1 1q-5 0 -8 1h-3l-2 1h-2q-4 0 -5 1h-1v0h-1h-1v1l-1 1q-3 6 -1 8l1 1v3v1v1h1q2 6 4 7.5t5 1.5h5
q1 1 5 1l6 -1l4 1h2h6h7h1h1v0v1q8 0 11 1h9l10 -1l1 1h1q1 1 4 1h1q0 -1 1 -1h1h2q1 1 4 1l1 -1v-1q2 2 5 1q6 0 8 1h1h1l2 1h1h1h5h1v1h1l1 1q1 1 8 1l3 -1q3 0 4 -3l1 -1l1 -1v-6q2 -3 0 -7q0 -1 0.5 -2zM383 410h3h1h-4zM363 184q0 1 -1 2t-1 3q-1 0 -3 2q-2 1 -4.5 3.5
t-2.5 3.5q-32 39 -77 101q-18 29 -33 55q-1 1 -1.5 2l-1.5 3l-6 5l-2 2q-4 4 -5 9l-1 -3l-11 -10l-8 -12q-25 -31 -39.5 -81.5t-14.5 -93.5q0 -41 13 -83q2 -10 12 -15l11 -10q5 -5 11 -9q3 -6 6 -7l18 -10h3q17 -7 43 -5h12v0q7 1 22 6t20 8q37 29 49 63q2 5 4 15v6
q0 6 3 15q2 8 2 9q1 2 1 6q-14 17 -18 20zM218 648l-2 -7v-1l-2 -2v0h1l-1 -2v-3h1l-1 -1v-2q1 -54 6 -93l2 -2l3 -13q0 -3 1 -5q0 -4 1 -5l2 -7q1 -2 1 -4.5t1 -3.5q2 -7 5 -14.5t6 -17.5q20 29 29 50t10 40v4q0 4 1 7l1 4q0 50 -8 79q-6 29 -21 29q-11 0 -28 -13l-1 -3
l-1 -2q-2 -2 -2 -3l-1 1l-3 -6v0v-4z" />
    <glyph glyph-name="quotesingle" unicode="'" horiz-adv-x="147" 
d="M56.5 490.5q-1.5 0.5 -2.5 1.5q-1 2 -3 2v1v1v0q-1 0 -1 1h1h-1h-2l2 1q0 1 -2 1q-4 12 -4 40h-2q0 2 1 3l-1 2l-1 1v2q0 3 1 3t1 3t1 5v5l1 6l-1 8v6q-1 2 -2 6t-1 8l1 8v8h-0.5t-0.5 1v2v1q1 1 1 3v1t-1 2v1v1h1v8h-1l1 2v5q0 11 -1 21v3v4v1v2v1q0 5 3 14q0 7 1 8v4
q0 2 1 4t1 3v1v0h1q2 0 2 1q-2 1 0 1h1v1l3 2q1 0 1 1q2 0 8 0.5t7 -0.5h3q3 0 5 -2h1h1l1 -1h1l6 -2q2 -1 4 -1t3 -1q1 -2 2 -2.5l1 -0.5q2 -5 2 -25q-1 -4 -1 -9l1 -4v-4v-11q0 -9 2 -10v-1v-1v-3v0q2 -14 2 -33l-2 -14l1 -3l1 -2q2 -4 1 -7v-0.5t-1 -0.5v-2v-1v-4v-5
q0 -3 -1 -2h-1q2 -2 1 -7q-1 -6 -1 -16l1 -1q-1 -1 -1 -2v-1q0 -1 1 -1t1 -1l-1 -2l-1 -2q0 -5 1 -7l1 -4q0 -1 1.5 -2t1.5 -2q0 -6 -3 -13l-2 -7l-4 -2h-7l-2 -2l-3 -1h-10q-4 1 -8.5 1t-8.5 1q-1 1 -2.5 1.5z" />
    <glyph glyph-name="parenleft" unicode="(" horiz-adv-x="286" 
d="M219 -101l-8 8l-4 7v0l-1 -1l-2 3l-2 3l-1 -1v0l-4 7q-41 50 -90 151l-3 3l-3 10l-4 10l-8 16l-5 19q-10 42 -12 47l-2 12q-1 5 -1 11q-2 3 -6 25q-13 54 -13 94q-1 23 3 66v7l-1 5q0 5 3 9l1 5l2 14v7q0 2 1 3t1 3l8 33h-1l3 9q22 65 37 104l16 32l1 4l4 5l2 4
q17 30 38 58q18 24 33.5 42.5t22.5 25.5l3 3l2 2h1l2 2l3 4l2 1l2 1l9 7q2 0 3 1l1 1q2 2 9 -2q2 -2 2 -3q-1 -1 -1 -5l-3 -9v0l1 -1q0 -2 -1 -3l-2 -4q-1 -1 -4 -16q-6 -17 -8 -20q-39 -61 -73 -126q-5 -12 -12 -34q-19 -52 -24 -80q0 -3 -1 -5l-1 -4q0 -4 -1 -6v-3
q-9 -86 -8 -118v-32v-27l2 -5l4 -10l5 -26q0 -6 -1 -7q-1 -2 1 -8l2 -3q2 -10 4 -19t3 -13l1 -9q-2 0 -3 -1q6 -6 10 -26q8 -30 21 -60q2 -2 3 -5l2 -6l2 -4q4 -6 6 -13q1 -2 1 -4t1 -3q6 -16 15 -30l4 -5q5 -8 9 -12l4 -4q15 -23 22 -40l5 -12l14 -29q1 -3 2 -5.5t2 -4.5
q2 -5 -3 -6l-2 -1l2 -8l1 -4l1 -3l-10 -3q-11 -5 -21 -4q-6 1 -15 9z" />
    <glyph glyph-name="parenright" unicode=")" horiz-adv-x="286" 
d="M47 -110q-8 0 -16 4l-10 3l1 3l1 4l2 8l-2 1q-3 1 -3 4q0 2 1.5 5.5t2.5 6.5l14 29l5 12q7 17 22 40l4 4q4 4 9 12l4 5q9 14 15 30q1 1 1 3t1 4q2 7 6 13l2 4l2 6q1 3 3 5q13 30 21 60q4 20 10 26q-1 1 -3 1l1 9q1 4 3 13t4 19l2 3q2 6 1 8q-1 1 -1 7l5 26l4 10l2 5v27
v32q1 32 -8 118v3q-1 2 -1 6l-1 4q-1 2 -1 5q-5 28 -24 80q-7 22 -12 34q-34 65 -73 126q-2 3 -8 20q-3 15 -4 16l-2 4q-1 1 -1 3l1 1v0l-3 9q0 4 -1 5q0 1 2 3q7 4 9 2l1 -1q1 -1 3 -1l9 -7l2 -1l2 -1l3 -4l2 -2h1l2 -2l3 -3q7 -7 22.5 -25.5t33.5 -42.5q21 -28 38 -58
l2 -4l4 -5l1 -4l16 -32q15 -39 37 -104l3 -9h-1l8 -33q0 -2 1 -3t1 -3v-7l2 -14l1 -5q4 -6 2 -14v-7q5 -44 3 -66q0 -40 -13 -94q-4 -22 -6 -25q0 -6 -1 -11l-2 -12q-2 -5 -12 -47l-5 -19l-8 -16l-4 -10l-3 -10l-3 -3q-49 -101 -90 -151l-4 -7v0l-1 1l-2 -3l-2 -3l-1 1v0
l-4 -7l-8 -8q-9 -7 -15 -9h-5z" />
    <glyph glyph-name="asterisk" unicode="*" horiz-adv-x="332" 
d="M116 503l-2 3q-1 1 0 1v1h-1q-1 0 -1 1h1h-1q-1 0 0 1v1q-2 6 -2 13q0 5 2 23l-1 1l1 2v2v2v2q0 2 1 3l1 1q1 1 1 6l1 2q-1 0 -12 -5q-2 0 -4.5 -1t-3.5 -2v0h-1h-1l-16 -4l-3 -1q-2 -1 -3.5 -1.5t-4.5 -0.5h-4q-1 -1 -3 0v-1h-2v1v-1v0h-1l-1 1h-3h-1q-4 5 -2 7v1l2 2v1
v2v0l6 8q2 2 13 5q2 1 4.5 2t5.5 2l8 2l4 2q-1 -1 10 4h-2l-4 3l-3 3h-2l-1 1h-1q-4 4 -13 10q-2 2 -4 2l-3 3l-7 6l-2 2h-1l-1 1v1h-1v0v1v1l-1 4v0h-1q0 2 1 5t2 4q1 0 3 2q1 1 3 1v1v0h1h1l4 3q4 3 8 3q2 -1 11.5 -4.5t15.5 -8.5l8 -6l5 -1l4 -3l2 -2v2v1q0 1 1 1t1 1
q1 2 1 7v0h-1l1 1l6 24v4l1 3l-1 1l1 1l1 1q1 4 3 7t3 6l4 7l3 7l2 1q1 0 1 1v0h1v1h1h1l4 2h1v0q12 0 13 -3l4 -1l3 -3h1l1 -1l1 -1h1l10 -7l2 -4v-2q0 -9 -4 -19q-1 -2 -1 -4t-1 -3t-1 -5v-3l-2 -9l-2 -10v-1v-1v-1v-1v-3q1 1 4 1h2v-1q2 3 7 3q11 2 16 5h2q1 0 1 1h1h1h3
h1l8 3l1 1l2 1l2 1l1 1l14 1h7q1 -1 3 -1l1 -3h2l2 -1v-6q0 -4 -0.5 -5.5t-1.5 -2t-2 -1.5l-2 -1h-1h-1l1 -1h-2v0v-1h-1h-1q-5 -3 -36 -11l-1 -1h-1q-1 -1 -3 -1l-4 -2h-2q-1 -1 -3 -1t-5 -1t-5 -1h-3l-2 -1q0 -1 -9 -4q2 -1 13 -10h3q1 0 1 -1q5 0 8 -3l1 -2q0 -2 2 -2h1
l3 -2q4 -2 4 -4l2 -1v0l-1 -2q3 2 8 -3q7 -7 15 -10l1 -1q0 -1 1 -1q0 -1 1 -1q3 0 4 -1q0 -2 1 -2q6 -4 7 -4l2 -1l2 -1h2h2q5 -2 12 -10l5 -7l1 -2q1 0 -2 -5l1 -2v-1q1 -1 0 -2q-3 -6 -7 -9q-4 -6 -10 -6h-3h-1l-1 1v-1l-2 1v0v0h-1h-1v0q-8 2 -39 21h-1l-2 2l-4 3
q-3 0 -5 2q0 1 -2 1q-7 7 -10 8l-1 2q-2 2 -3 2q-7 4 -9 4l-5 4l-2 2q-2 -8 -2 -11v-2h-1q0 -1 1 -1v-2l-1 -2l-1 -1q-2 -5 -1 -7l1 -2v-2l2 -2q1 0 1 -1v-1q0 -3 -3.5 -9t-5.5 -8q-2 0 -2 -1q-1 -1 -8 1l-3 -1l-2 -2l-11 2q-9 1 -16 5z" />
    <glyph glyph-name="plus" unicode="+" horiz-adv-x="943" 
d="M311 830v0q7 0 14.5 -20t6.5 -37q1 -20 -24 -80q-14 -35 -17 -56q-3 -22 -5 -23q-3 -1 -3 -5t-6 -6q-13 -3 -25.5 8.5t-16.5 27.5q-2 6 -2 11q0 8 3 17q7 21 25 45q25 32 33.5 48.5t8.5 34.5l-1 13q-2 18 0 20q2 4 9 2zM377 841q7 0 12 -3q2 -2 8 -3l9 -5
q18 -9 30.5 -29.5t12.5 -41.5q0 -32 -40 -118q-29 -57 -37 -79q-9 -23 -10 -34l-1 -18h40l41 -1l-2 11q-2 13 4.5 37t21.5 55q15 33 18 46.5t3 51.5q0 42 11 42q7 0 15 -18q13 -29 13 -62q0 -14 -4 -30t-28 -66q-18 -38 -22 -55l-2 -13l23 -2q132 -11 184 -20q34 -4 36 -11
l-2 -4q-3 -4 3 -8q14 -8 18 -34q1 -6 2 -9.5t2 -2.5q23 13 50 13q24 0 35 -5t31 -23t25 -27t6 -32q2 -26 -3 -45t-25 -56q-8 -15 -27 -31.5t-38 -26.5q-25 -11 -55 -11q-22 0 -31 6l-11 6l-9 -18q-14 -28 -50.5 -58.5t-76.5 -48.5q-81 -36 -166 -36q-68 0 -111.5 15
t-93.5 55q-46 36 -69.5 77t-32.5 103q-4 20 -4 49q0 33 5.5 67t14.5 58q7 19 20 27q14 9 58.5 17.5t94.5 12.5l25 3l-2 16q-2 35 30 85q54 91 63 118q4 15 4 32q0 20 -5 35q-10 26 -11 27q-4 6 -5 12q-2 8 5 8zM444 487q-14 3 -62 3h-5q-5 0 -5 -1q0 -2 14 -10q10 -6 10 -10
q0 -3 -10 -3q-9 0 -15 1q-20 2 -39 12q-9 5 -16 7.5t-14 2.5l-23 -2q-50 -3 -119 -17l-24 -5l13 -4q39 -12 127 -15q46 -2 48 -4q4 -2 -1 -8q-6 -8 -54 -8q-24 0 -53 3l-29 2q-9 0 -11 -2q-7 -4 -29 -11q-16 -5 -22 -8q-4 -3 -4 -10q0 -9 1 -9l27 8q26 8 27 7q7 -7 -29 -17
q-16 -5 -22 -8q-4 -3 -4 -11q0 -7 1 -8t4 0q51 20 62 20q5 0 5 -2q0 -3 -17 -10q-21 -9 -43 -16q-9 -3 -10.5 -5.5t-1.5 -13.5q0 -15 1 -15q3 0 32 10.5t36 14.5q22 10 22 2q0 -2 -21 -12q-22 -10 -44 -17l-21 -7l-1 -13q-1 -13 2 -13q2 0 15 5.5t27 10.5q38 15 42 15
q9 0 -1 -7l-7 -5q-26 -12 -75 -30q0 -5 2.5 -15t4.5 -15l35 15q20 9 31.5 13t12.5 2l1 -2q0 -4 -39 -21l-39 -17l5 -14l5 -15l29 13q45 21 45 14q0 -2 -26.5 -15.5t-38.5 -16.5l-7 -3l8 -15l8 -15l20 12q31 19 41 19q4 0 4 -2q0 -3 -20 -15q-6 -4 -9 -5l-30 -16l5 -8
q6 -7 12 -3q47 30 54 30q5 18 3 8.5t-8 -17.5t-17 -14l-3 -2l-28 -17l10 -10l10 -10l22 14q4 12 8 18.5t6.5 7.5t2.5 -3v-6q0 -18 -10 -25l-21 -14l7 -7l7 -7l13 9l14 9q4 0 5 -4v-1q0 -5 -9 -11q-10 -6 -10 -9q0 -2 6 -5q1 -1 4 -1q6 0 13 6q7 5 11 5t4 -4t-5 -8l-7 -8
l18 -7q62 -24 113 -24q33 0 69 9q51 13 92.5 38t75.5 69q33 43 42.5 74.5t15.5 98.5q1 19 3 32t2 21q0 10 -5 10q-4 0 -18 -7.5t-22 -12.5q-41 -22 -43 -20q-4 4 4 9.5t17.5 10.5t13.5 7q27 13 35 18.5t10 11.5t4 27l1 24q-1 4 -6 4q-6 0 -6 -4q0 -9 -35.5 -20t-63.5 -11h-9
q-19 0 -19 5q0 3 4 7q7 5 18 5q21 0 66 14l19 6l-67 7q-65 7 -92 9l-25 2v-9q0 -6 -1.5 -7.5t-8.5 -0.5q-10 2 -17 10q-5 6 -11 8zM147 439l-24 7q-2 1 -4 -1q-1 -1 -1 -11q0 -14 2 -14q3 0 24 7l22 7zM775 411q-16 0 -25.5 -13.5t-11.5 -31.5l-2 -22l10 6q15 9 28 9
q15 0 24 -11.5t9 -31.5q0 -59 -52 -70q-12 -2 -16 -2q-10 0 -15 4q-4 1 -5 0q-3 -5 -6.5 -16.5t0.5 -14.5q5 -7 5 -2q0 2 2 4t6 2q3 0 8 -3q6 -4 6 -10q0 -4 3 -4t3 -5q0 -4 10 -4q8 0 11 2q2 2 2 3q0 4 -7 11q-19 20 -10 28q3 2 7 2q6 0 7 -5t9.5 -14.5t11.5 -9.5
q3 -1 7.5 3.5t1.5 6.5q-4 4 -9.5 12.5t-2.5 11.5q3 5 7 5t9 -8t7 -8q3 0 6 5t4 7l6 11l-6 5q-6 5 -6 10q0 3 3 4.5t8 0.5h2q7 0 10 6q5 15 5 47q0 12 -2 22q-4 14 -14 28.5t-21 20.5q-15 9 -27 9zM768 346q-7 0 -21 -14q-8 -8 -10.5 -13.5t-8.5 -28.5l-6 -30l12 -1
q12 -3 23 2.5t18 17.5q4 9 4 35q0 32 -11 32zM663 432l13 5q2 1 5 1q12 0 -8 -11t-45 -20.5t-25 -5.5q1 3 37 21q8 4 23 10zM684 362q1 1 4 1t3 -3q0 -4 -7 -8q-18 -11 -39 -21.5t-21 -3.5q0 2 13 9.5t18 10.5q23 13 29 15zM690 323q0 -4 -15.5 -11.5t-31.5 -12.5t-16 -2
l1 2q1 4 28 15q34 15 34 9zM685 292q5 0 -2 -6.5t-21 -13.5q-24 -12 -30 -12q-7 0 -1 5q5 5 24 15q23 12 30 12zM674 254q0 -3 -21.5 -13.5t-26.5 -10.5q-1 0 -1 2t1 3q4 6 21 15q27 12 27 4zM656 224q3 0 3 -2q0 -5 -17 -12q-19 -9 -26 -9q-6 0 -6 2q0 4 11 9l21 9
q9 3 14 3zM646 188l-4 -5q-4 -4 -18 -4q-10 0 -10 2t11 6q23 9 21 1zM613 157q2 -2 2 -4q0 -9 -15 -9l-9 -5q-1 0 -1 1t5 6l8 8q8 3 10 3zM600 57q18 0 18 -12q0 -7 -17 -21q-66 -47 -211 -47q-162 0 -196 51q-5 6 -5 14q0 9 7 9q13 1 19.5 -1.5t14.5 -11.5
q18 -22 64.5 -32.5t102.5 -10.5q39 0 76 5q95 15 112 45q6 12 15 12zM276 170.5q-1 2.5 -1 3.5q-2 24 -4 36q-4 38 -4 56t5 55q6 34 29 42q6 3 9 3q19 -2 28 -27q10 -21 14 -49q7 -66 7 -100q0 -3 -5 -8q-7 -5 -10 -5q-6 0 -9 4q-4 7 -6 35.5t-2 32.5l-28 -9h-2l5 -37l1 -11
l2 -17q0 -2 -2 -4t-4 -5q-4 -4 -10 -3q-5 0 -9 3q-3 2 -4 4.5zM324 277l-1 8q-6 33 -11 45l-3 8q-6 -6 -9 -22q-5 -21 -5 -51l29 9v3zM451 190.5q-2 3.5 -2 6.5q-2 10 -3.5 17t-2.5 11q-6 17 -34 62q-2 5 -7 7q2 -27 3 -31l2 -27l4 -38v-2q0 -4 -5 -7.5t-11 -3.5q-2 0 -8 2
t-4 8v0q-3 19 -6 66l-2 32v22q2 26 15 26h3q5 0 8 -3q7 -2 10 -7l2 -3l3 -3l3 -4q4 -8 9 -13q-3 26 7 44q1 3 3 4t3 2q3 3 6 3q5 0 7 -1q10 -7 10 -12q0 -1 -1 -2.5t-1 -3.5q-7 -13 -6 -33v-5q0 -7 4 -27l6 -22q10 -44 11 -58v-1q0 -4 -5 -8q-2 -1 -8 -2t-9 0q-2 1 -4 4.5z
M486 309l-2 11l-2 19v1q0 8 8 16.5t29 9.5q17 3 34 -18q11 -13 21 -42q9 -28 10 -50q0 -16 -4 -36q-15 -37 -55 -36q-16 0 -24 20zM556 257q-2 22 -9 43t-18 33q-2 6 -9 8l-2 -1q-1 -2 -3 -2.5t-5 -2.5l2 -4l0.5 -1.5t-0.5 -3.5v-2l3 -11l12 -100h0.5t0.5 -1v-2q15 0 23 18
q5 18 5 29z" />
    <glyph glyph-name="comma" unicode="," horiz-adv-x="185" 
d="M27 -68h2q0 1 1 1t1 1v1l1 1l1 -1q0 1 9 9q9 9 12 13v0l2 4v1l1 2h2l1 2l2 3l4 5q1 0 1 1l3 12l1 5v5q0 2 1 3q-1 -2 -3 0h-1v0v0h-1v0h-1q-7 3 -17 17h-1q-1 0 -1 1q-1 1 -1 4q-2 0 -2 1l1 2l-1 2q-1 1 0 2l-1 3l1 1l-1 3q1 1 -0.5 4t-1.5 4q-1 4 -1 10l4 10l2 2
q-1 0 -1 1h1l1 1l2 2v1v1h2l4 3v1h2q4 1 8.5 3t7.5 3h3h1q2 5 5 5l2 1l2 2h1q1 1 3 1h1q1 0 4 1t6 1q2 2 4 -1q7 -4 12 -10t11 -21q0 -2 2 -5t2 -6q2 -7 3 -14.5t1 -10.5v-2v-1q0 -3 1 -3q0 -15 -8 -37q0 -3 -10 -16q0 -1 -0.5 -1.5t0.5 -1.5v-1q0 -5 -4 -9l-2 -1
q-1 0 -3 -2l1 -1q-2 -2 -4 -2q-2 -5 -4 -5q0 -1 -1 -2t-2 0v2q0 -3 -2.5 -4.5t-3.5 -2.5l-15 -10l-2 -2q-1 -1 -1 -0.5v0.5q0 -1 -1 -1h-1l-3 -1q0 -1 -2 -1l-8 -4q-1 -1 -2 0q-2 -3 -3 -4h-1q-4 -3 -15 -1h-9q0 1 -2 1q-1 0 -1.5 1t-0.5 2l-1 2h-2v5q0 5 2 6q0 3 1 4z" />
    <glyph glyph-name="hyphen" unicode="-" horiz-adv-x="304" 
d="M268 286l-3 -2h-1h-1v-1h-1v-1h-1h-1q-6 -2 -42 -4v-1h-2h-3h-2q-1 -1 -3 -1l-2 1h-3q-1 1 -6 1h-6h-2q-1 1 -3 1h-9l-7 -1l-6 -1q-4 -1 -9 -1t-8 1h-9h-1l-2 -1l-2 1h-2l-4 -1h-1v0l-1 1h-9v-1l-2 1h-5q-12 0 -22 -1h-4h-5v-1l-2 1h-1l-16 2h-4q-3 0 -4 1l-9 1l-2 1
q0 1 -1 1l-1 -1v1h-1h-1v1q0 1 -1 1q-2 2 -2 3l-1 1v0q-5 9 -1 11l1 3q0 3 1 4v2h1l1 1l3 5l2 6l2 2q10 2 27 2l9 -1q3 0 5 1h5l11 1h12h1h1l2 1h1q4 1 20 1h14l17 -2l2 1l2 2q2 1 8 1l2 -1q0 -1 2 -1l1 1h4h5l3 -1v-2q2 3 7 2q12 -2 17 -1h2h2l1 1h1l2 -1h2q3 -1 9 1h1
q2 0 3 1l1 1t2 1h2q6 0 11.5 -2t8.5 -3l2 -2q1 0 1 -6l1 -2l2 -2v-9l-3 -14q0 -1 -3 -4z" />
    <glyph glyph-name="period" unicode="." horiz-adv-x="151" 
d="M83 88h1v1h1v0h1h2v0v1l1 -1v1h1h1q11 1 19.5 -8.5t11.5 -20.5l1 -2v-1v-2v0v-3q1 -1 1 -4l1 -1v-2v-3l1 -1v-2v-3l-1 -2l-2 -11l-2 -2l-2 -2q-4 -10 -6 -12.5t-7 -5.5l-10 -2h-1h-1h-2l-2 -1h-1h-1h-4v-1v0h-7q-3 -6 -5 -6.5t-3 -0.5l-2 -1h-1h-1v-1v1v0v-1q-1 0 -1 1v0
q-5 0 -14 10v0l-1 1h-1v0v0q-5 1 -10 6l-1 -1v0l-3 4q-10 27 -9 43l4 13l-1 2l4 3l7 4l1 1l2 4l1 2q2 2 3 2v0v0h1v1h1h2h3v0h1l10 -2v1h1v-1v1h1h1q1 1 1.5 0.5t0.5 -1.5h1l1 -1q6 2 7 1h1v2q3 3 4 3z" />
    <glyph glyph-name="slash" unicode="/" horiz-adv-x="361" 
d="M50 35q0 10 0.5 13l0.5 3l1 2q1 1 1 3h-1q0 2 1 3t1 3h-1q0 2 1 3t1 3q5 23 39 129v3l2 7l3 8q0 1 3 13l6 14l13 34l4 9q1 3 7 22q7 23 8 31q4 20 12 44l15 48q2 6 2 10q2 6 5 9q2 8 2 11l1 3q0 2 3 5l7 24h-1l4 7l23 76q3 5 5 12.5t3 11.5v3q2 5 4 7l17 45l5 12l4 12
l5 12l6 12q2 6 3 7q1 0 1.5 2t0.5 3h1v-1q2 2 2 6l2 1h1l3 4q2 2 3 2l1 1l1 1h4q11 0 11 -3l2 -4q3 -3 3 -6q0 -1 1 -1h1v-3q0 -2 1 -3q0 -3 3 -9q6 -11 4 -19q-10 -41 -23 -75q-7 -19 -9 -27q-3 -10 -4 -14l-4 -12l-9 -32q-10 -31 -10 -33q-1 -1 -1 -3l-2 -4v-4l-1 -4
q-3 -13 -20 -68l-9 -28l-18 -48v-4q-1 -2 -1 -6l1 -3q0 -2 -7 -22l-3 -6l-3 -6v-3l-4 -11q-4 -13 -5 -16l-3 -7q-1 1 -3 1v-3q0 -9 -5 -20q-10 -23 -18 -50q0 -3 -1 -5l-2 -6q-1 -1 -1 -3q0 -4 -4 -11l-2 -6q-6 -14 -9 -26q0 -3 -1 -5q-2 -10 -2 -13v-5q-3 -13 -19 -44
l-12 -23l-5 -7q-1 -3 -9 0l-4 -4l-4 -5l-10 8q-10 6 -13 12q-2 2 -2 6z" />
    <glyph glyph-name="colon" unicode=":" horiz-adv-x="206" 
d="M113 88h1v1h1v0h1h2v0v1l1 -1v1h1h1q11 1 19.5 -8.5t11.5 -20.5l1 -2v-1v-2v0v-3q1 -1 1 -4l1 -1v-2v-3l1 -1v-2v-3l-1 -2l-2 -11l-2 -2l-2 -2q-4 -10 -6 -12.5t-7 -5.5l-10 -2h-1h-1h-2l-2 -1h-1h-1h-4v-1v0h-7q-3 -6 -5 -6.5t-3 -0.5l-2 -1h-1h-1v-1v1v0v-1q-1 0 -1 1
v0q-5 0 -14 10v0l-1 1h-1v0v0q-5 1 -10 6l-1 -1v0l-3 4q-10 27 -9 43l4 13l-1 2l4 3l7 4l1 1l2 4l1 2q2 2 3 2v0v0h1v1h1h2h3v0h1l10 -2v1h1v-1v1h1h1q1 1 1.5 0.5t0.5 -1.5h1l1 -1q6 2 7 1h1v2q3 3 4 3zM145 479l1 -1h1v-1v0l1 -1l1 -1v0h1l-1 -1h1l1 -1v0q4 -5 4 -13
t-4 -16t-9 -13l-2 -2h-1q0 -1 -1 -1v0q-1 -1 -2 -1t-1 -1q0 -2 -3 -2v-2l-2 -1l-3 -1v-2q0 -1 -1 -1h-1l-2 -1h-3l-10 -4l-3 1h-2q-4 -1 -10 -1q-5 0 -13 4l-6 7l-1 1v1l-1 2l-2 1l-1 1v1l-2 3h-1v0l-4 6q-4 0 -6 0.5t-3 1.5l-1 1l-1 1l-1 1v1h-1h1v0h-1q-1 0 0 1v0
q-1 1 -1 4q0 4 3 13v0v1v1v0v0q-2 4 0 12h-2v0l2 5q19 23 33 29l13 3l2 2l4 -2l7 -4h2h4h2q1 0 2 -0.5l1 -0.5v0v0l1 -1h1v-1l1 -1l2 -3v0v-1q1 -3 2 -5t2 -5v1l1 -1h-1h1v-1l1 -1q2 0 0 -2l1 -1l-1 -1q5 -5 5 -6v-1l2 1q3 0 4 -1z" />
    <glyph glyph-name="semicolon" unicode=";" horiz-adv-x="212" 
d="M145 479l1 -1h1v-1v0l1 -1l1 -1v0h1l-1 -1h1l1 -1v0q4 -5 4 -13t-4 -16t-9 -13l-2 -2h-1q0 -1 -1 -1v0q-1 -1 -2 -1t-1 -1q0 -2 -3 -2v-2l-2 -1l-3 -1v-2q0 -1 -1 -1h-1l-2 -1h-3l-10 -4l-3 1h-2q-4 -1 -10 -1q-5 0 -13 4l-6 7l-1 1v1l-1 2l-2 1l-1 1v1l-2 3h-1v0l-4 6
q-4 0 -6 0.5t-3 1.5l-1 1l-1 1l-1 1v1h-1h1v0h-1q-1 0 0 1v0q-1 1 -1 4q0 4 3 13v0v1v1v0v0q-2 4 0 12h-2v0l2 5q19 23 33 29l13 3l2 2l4 -2l7 -4h2h4h2q1 0 2 -0.5l1 -0.5v0v0l1 -1h1v-1l1 -1l2 -3v0v-1q1 -3 2 -5t2 -5v1l1 -1h-1h1v-1l1 -1q2 0 0 -2l1 -1l-1 -1q5 -5 5 -6
v-1l2 1q3 0 4 -1zM52 -62h2q0 1 1 1t1 1v1l1 1l1 -1q0 1 9 9q9 9 12 13v0l2 4v1l1 2h2l1 2l2 3q3 5 4 5t1 1l3 12l1 5v5q0 2 1 3q-1 -1 -1.5 -0.5t-1.5 0.5h-1v0v0h-1v0h-1q-7 3 -17 17h-1q-1 0 -1 1q-1 1 -1 4q-2 0 -2 1l1 2l-1 2q-1 1 0 2l-1 3l1 1l-1 3q1 1 -0.5 4
t-1.5 4q-2 8 -1 10l4 10l2 2q-1 0 -1 1h1l1 1l2 2v1v1h2l4 3v1h2q4 1 8.5 3t7.5 3h3h1q2 5 5 5l2 1l2 2h1q1 1 3 1h1q1 0 4 1t6 1q2 2 4 -1q7 -4 12 -10t11 -21q0 -2 2 -5t2 -6q2 -7 3 -14.5t1 -10.5v-2v-1q0 -3 1 -3q0 -15 -8 -37q0 -3 -10 -16q0 -1 -0.5 -1.5t0.5 -1.5v-1
q0 -5 -4 -9l-2 -1q-1 0 -3 -2l1 -1q-2 -2 -4 -2q-2 -5 -4 -5q0 -1 -1 -2t-2 0v2q0 -3 -2.5 -4.5t-3.5 -2.5l-15 -10l-2 -2q-1 -1 -1 -0.5v0.5q0 -1 -1 -1h-1q-1 -1 -2 -0.5t-1 -0.5t-2 -1q-6 -2 -8 -4q-1 -1 -2 0q-2 -3 -3 -4h-1q-2 0 -6.5 -1t-8.5 0h-9q0 1 -2 1
q-1 0 -1.5 1t-0.5 2l-1 2h-2v5q0 5 2 6q0 4 1 4z" />
    <glyph glyph-name="less" unicode="&#x3c;" horiz-adv-x="389" 
d="M272 178l-5 -1q-1 -1 -1 0v1q-1 0 -1 -1l-1 -1l-1 1v0l-1 -1q-1 0 -1 1h-1l-13 4q-2 0 -7 3q-2 2 -3.5 2.5t-2.5 1.5q-4 2 -7.5 4.5t-5.5 3.5h-2l-2 2q-1 1 -6 3q-3 1 -4 4l-1 2q-2 3 -5 5q-4 2 -5 5l-2 3q-2 2 -3 2q-2 3 -7.5 6.5t-8.5 4.5q-2 1 -7 4.5t-12 6.5
q-13 13 -16 14q-1 1 -3 1q-3 0 -3 4l-2 1l-4 4h-1q-1 0 0 1q0 1 -1 1q-2 2 -4 3.5t-4 3.5l-1 -1h-1l-1 3q-3 4 -25 20q-1 0 -3 3q-2 2 -4 2h-1l-1 1v1q-7 7 -10 12l-2 2q-1 1 -1 3l-1 2l-2 3v3l-1 1h1q-1 2 -2.5 3.5l-2.5 2.5q0 3 1 5l1 4v0l1 1v0l1 1v1v0l1 1q7 9 22 20
q4 3 11 10v1l4 2q0 2 3 5q2 0 3 1l2 1q8 6 11 7l4 2q2 0 3 1q2 3 5.5 7t5.5 5l5 5q7 9 14 13l6 5l2 2l1 1t2 1l2 1l3 3h1h1v1q6 3 9 6h-1l3 2q2 0 26 18l6 4q3 0 3 1v1l2 1l2 1q11 4 19 9l11 4q2 0 5 2q7 3 10 3h1h1h1h1q0 1 1 1l1 -1h1h6v-1q3 -1 7 -4t4 -4l1 -2l1 -4v0
l1 -1l-1 -2v0l2 -4l1 -6v-4q-3 -3 -14 -10l-9 -7q-7 -3 -9 -5l-7 -7l-19 -16h-1l-1 -1l-1 -1v-2l-8 -7q-7 -7 -19 -16q-4 -4 -17 -11q-1 0 -1 -2v-2l-5 -7h-3q-3 0 -4 -1l1 -1q-2 -2 -5 -2l-4 -4q-2 -2 -4 -1l-2 1q1 -2 0 -3.5t-4 -2.5l-2 -1q-2 -1 -5.5 -3t-7.5 -4l1 -1
l6 -3l5 -3q3 -3 11 -7q6 -6 12 -10h2q0 -2 4 -2l1 -1l12 -7q8 -7 24 -19q7 -6 11 -12l4 -5h2h3h3q5 -2 9 -6q2 0 0 -2q-1 -1 1 -3h2q1 0 2.5 -1t2.5 -2l5 -7l-3 -1q8 2 9 -4q1 0 1 -1q7 -8 14 -12l1 -1l2 -1h2q2 0 2 -3v-2q2 -2 8 -4q0 -1 4 -1h3h2q5 0 5 -8q0 -5 -1 -6
l-2 -2l-7 -6q0 -1 -4 -5l-8 -6q-12 -9 -22 -14z" />
    <glyph glyph-name="equal" unicode="=" 
d="M387 348h-1h-1v-1l-1 1h-2v-1q0 -1 -1 -1l-1 1q-1 0 -5 -0.5t-13 -0.5l-39 1l-1 -1q-2 0 -3 1h-4h-3q-1 -1 -3 -1t-3 1l-4 1q-5 0 -8 1h-8q-1 1 -3.5 1.5t-4.5 0.5h-6q-3 -1 -8 -1q-6 0 -7 -1h-10q-5 -1 -12 -1h-12h-12h-2l-2 -1q-2 0 -3 1h-2h-6h-1q-1 0 -1 1h-2h-12v-1
l-3 1q-2 1 -13 1q-15 0 -26 -1l-6 1q-5 0 -6 -1l-1 -1l-2 1l-2 1q-10 0 -23 3q-7 0 -11 2l-6 1q-7 0 -10 3h-1h-1v1h-1h-1q-1 0 -1 1t-1 1q-3 3 -3 4l-1 1v7q-1 4 1 6l1 2l3 4v1v1l2 1l1 1l4 5q5 7 8 7h22q7 0 13 -1l13 -2h7h6h12h11q3 -1 9 0h2h1h2h2q5 1 26 1h21h2l22 -2
l4 2l2 1q3 1 11 1q2 0 3 -1t3 -1l1 1h6q5 0 8 -1l3 -1v-2q4 4 11 2q16 -2 24 -1h3h2h2h2h3q1 -1 3 -1q6 -1 12 0q2 0 3 1h2q2 0 3 1l2 1h4q7 0 17 -3l10 -5q3 -1 4 -2.5t0 -6.5l2 -3l2 -2q-1 -3 -3 -10.5t-5 -14.5zM390 228h-1h-1v-1h-1h-1v-1h-1h-1q-8 -2 -53 -4l-2 -1h-3
h-3h-3q-1 -1 -3 -1t-3 1h-3q-5 0 -8 1h-7q-3 0 -4 1h-4h-6l-14 -2l-20 -2h-11h-11h-2l-2 -1l-2 1h-2q-4 0 -6 -1h-1q-1 0 -1 1h-1h-11v-1l-3 1l-35 -2h-6q-4 0 -5 -1l-1 -1h-2l-1 1q-12 0 -20 1h-6h-5q-3 0 -5 1h-5q-3 0 -4 1h-1h-1v1l-1 -1q-1 0 -1 1v1h-1q-4 1 -4 3h-1
q-5 11 -2 12l1 3l2 4v0v2l1 1q1 0 1 1q2 2 3 5q1 1 2.5 4.5t3.5 3.5q7 4 33 4h12q4 0 7 1h5q3 1 7.5 1t8.5 1q12 0 14 1h2h2l2 1h1l45 2l22 -1q2 0 3 1t3 1q4 2 10 1l2 -1q2 -1 3 0h1l6 1q5 0 6 -1l4 -1v-1q3 3 10 1l11 -1l11 1h1h3l2 1h1h3q1 -1 3 -1h3q5 0 8 1h2l5 2l2 1
l4 1q5 0 14 -3q8 -1 10 -3l3 -2q1 0 1 -6q0 -1 2 -3l2 -1q-1 -2 -1 -7q0 -12 -3 -17q-6 -6 -8 -6z" />
    <glyph glyph-name="question" unicode="?" 
d="M174 145q-2 1 -2.5 2l-0.5 1l-2 1v1h-1l-1 1v2v0l-1 -1q-1 0 -1 2l-1 1q-6 11 -6 24q0 16 11 38v2l2 2q0 2 1 3l2 3q0 1 6 5l1 2q9 9 13 11q0 1 2.5 2.5t4.5 2.5q2 0 7 7q6 6 8 7q5 4 10 9t6 5q5 3 9 9l9 7l3 2l2 2l6 3q0 1 4 5l1 1h1h1q3 2 5 4.5t4 4.5l-1 1l4 2
q12 10 26 31l3 3q-2 5 0 11l2 9q0 1 2 3l1 2h-1l1 2v2v1v2q2 2 2 3q0 8 6 33q8 39 11 75l-2 2q0 4 1 7q0 4 -1 6l-1 10q-2 2 0 7v7q0 7 -1 15l-2 16l-3 17q-6 16 -16 33t-21 26q-11 10 -35 18h-2q-3 0 -5 1h-5h-3q-7 0 -12 -1q-1 -1 -2 0h-3q-3 -1 -8 -2.5t-11 -4.5v-1
l-7 -2q-33 -19 -49 -46q-8 -15 -9 -19v-3q0 -2 -1 -3q-2 0 -2 -1q-8 -29 -8 -36l-1 -20q0 -8 1 -15q0 -14 -1 -14l1 -2v-3v0q-1 -1 0 -3v-2v-2l-1 -2q-1 -1 0 -6q0 -4 -2 -4q-1 0 -1 -2v-1q-1 -3 -7.5 -8t-8.5 -3l-5 1q-1 0 -4 1t-4 3q0 1 -1 0l-2 -1q-1 0 -3 3q-2 2 -4 2
l-10 7q-17 11 -19 20q-4 16 -4 34q0 23 9.5 45.5t30.5 49.5q7 10 22 23q20 17 63 37l8 3l7 3q42 12 79 12q9 0 27 -2q23 -4 54 -25q3 -3 9 -4q3 -2 4.5 -2.5t1.5 -1.5q14 -10 22 -24q4 -4 4 -9t3 -8l3 -2q2 -5 6.5 -18t5.5 -22v-9q-1 2 -3 0q7 -7 7 -27q0 -21 -1 -35.5
t-1 -23.5l-1 -6q-1 -2 -1 -6v-4q0 -1 0.5 -2t-0.5 -2l-1 -7l-3 -7q-5 -12 -8 -26q0 -4 -1 -6q-2 -10 -2 -12v-5q-5 -13 -24 -42q-14 -19 -18 -20q0 -1 -5 -6q0 -1 -1 -1v0l-12 -12l-27 -27q0 -1 -1 -1h-2q-3 -3 -4 -3q-3 -6 -20 -19q-11 -9 -18 -16q-3 -2 -6 -3.5t-6 -4.5
l-9 -7q-1 0 -2 -4h-1q-3 -6 -5 -8l-2 -1q-2 0 -3 -1v-2l-6 -9l-2 -1v0l-1 1q1 -3 -2 -8q-4 -8 -3 -13v-1v-1l1 -1v-1v-1v-2q-1 -1 0 -2t2 -1v-1q0 -1 1 -1l2 -1l2 -1l1 -2l-3 -5q0 -5 -1 -8l-2 -2q0 -1 -2 -1.5t-5 -2.5l-1 -3l-1 -3l-7 -4q-10 -6 -19 -6zM208 87h1v1h1v0h1
h2v0v1l1 -1v1h1h1q10 1 17.5 -8.5t10.5 -20.5l1 -2v-1v-2v0q0 -1 -0.5 -1.5t0.5 -1.5t1 -4l1 -1v-2v-3l1 -1q1 -1 0.5 -1.5l-0.5 -0.5v-3l-1 -2l-2 -11l-2 -2l-2 -2q-3 -10 -5 -12.5t-7 -5.5q-1 0 -9 -2h-1h-1h-2l-1 -1h-1h-1h-4v-1v0h-6q-3 -6 -5 -6.5t-3 -0.5l-1 -1h-1h-1
v-1v1v0v-1q-1 0 -1 1v0q-6 0 -13 10v0l-1 1h-1v0v0q-4 1 -9 6l-1 -1v0l-3 4q-9 28 -8 43l4 13l-1 2l3 3l7 4l1 1l2 4v2q2 2 3 2v0v0h1v1h1h2h3v0h1l9 -2v1h1v-1v1h1h1q0 1 0.5 0.5t0.5 -1.5h1l1 -1q6 2 7 1h1v2q0 2 3 3z" />
    <glyph glyph-name="at" unicode="@" horiz-adv-x="593" 
d="M414 -43l-12 -5q-2 -2 -7 -3q-4 -1 -7 -4q-2 0 -3 -1l-6 -2q-4 -1 -5 -2l-12 -4q-54 -18 -96 -18q-44 0 -82 20t-78 65l-5 4q-9 13 -18.5 31t-10.5 26q-9 21 -11 33q-10 48 -11 83q-1 11 1 42q4 67 20.5 117t46.5 92q31 43 91 82q23 14 48 23q21 7 33.5 11.5t19.5 6.5
q5 0 9.5 1t8.5 2q21 3 41 3q10 0 34 -2l20 -4q42 -26 74 -80.5t42 -102.5v-24.5t3 -46.5l1 -6q0 -4 -1 -9.5t-2 -12.5l-4 -26q-6 -36 -10.5 -52.5t-15.5 -38.5q-13 -27 -29 -42q-9 -7 -24 -14.5t-24 -10.5l-4 -1q-1 -1 -2.5 -0.5l-1.5 0.5v0l-5 1q-3 -1 -4 0h-2l-2 1
q-2 2 -4 2l-6 3q0 1 -0.5 1h-0.5q0 2 -1 3h-2q-2 2 2 9h1q-2 1 -4 4t-4 3h-2q-1 0 -1 2q0 1 -1 2.5t-3 1.5t-2 1l-1 2v3q-4 9 -6 10l-1 4v2q0 2 -1 4t-2 5q-4 4 -4 5q-1 3 -3 5l-8.5 -17t-10.5 -19v-2l-11 -13q-10 -14 -21 -20q-18 -11 -31 -13l-15 -4q-36 -3 -56.5 26
t-20.5 71q0 21 1 33q1 1 1 5v3q0 4 3 10q2 3 1 4q1 5 2 10.5t2 7.5q0 1 1 2.5t2 1.5q8 20 11 27l-1 -1l4 8q34 47 55 60l20 9l2 1l6 1q15 3 27 3q29 0 44 -17q21 -26 21 -35q0 -1 2 -3l2 -4h-1q0 -2 1 -3l2 -4v0q5 0 6 -3q2 -4 3.5 -11t1.5 -14v-9l1 -5l1 -4l2 -7l2 -9l1 -5
v-1v-1q0 -1 1 -1l1 -1q0 -6 4 -15q1 -9 4 -12l1 -15l1 -1q1 0 1.5 0.5t1.5 -0.5q3 -3 3 -5v-2l-1 -1l1 -1q0 -2 2 -3v-3q1 -1 0.5 -1.5l-0.5 -0.5h-1q3 0 3 -3l-1 -1q2 -7 5 -10v-1l1 -1h1l2 -1l-1 -2q0 -2 3 -4h1h2q2 6 6.5 17.5t6.5 22.5q17 79 17 125q0 104 -32 161
q-21 34 -35 48q-6 7 -24 16q-23 6 -44 6q-51 0 -98.5 -26t-76.5 -68q-31 -48 -48 -95l-4 -28l-6 -50l-3 -12q-2 -6 -2 -14l2 -7q-1 -19 2 -58q1 -4 1 -14l1 -2l-4 3q-2 0 1 -3q4 -7 8 -25.5t5 -20.5q16 -53 38 -85q3 -4 6 -7.5t5 -7.5l4 -4l4 -5q1 0 2 -2t4 -4l8 -9
q16 -17 33 -25q19 -9 34 -10q11 -1 29 -1q28 0 46 4.5t47 15.5l25 9q3 1 21 10q5 2 8 1l2 1q3 2 6.5 4t5.5 3q3 0 6 2q5 2 8 6l-6 -11q-8 -13 -11 -15q-13 -12 -37 -24zM343 289q-3 2 -4 4q-11 17 -15 25q-7 11 -15 11t-17 -13q-8 -9 -14 -21t-12 -25l-1 -2l-1 -3l-1 -6v-2
q-7 -34 -7 -62q0 -11 2 -27q6 -30 11 -41q0 -3 5 -6h1q3 -5 1 -8q-1 -2 -1.5 -4t-1.5 -3v-1q0 -2 1.5 -4t4.5 -1l4 3v-3q0 1 8 12q16 28 21 38q0 1 2.5 4t2.5 5q0 1 1 3t1 5q1 0 3 5l3 6q2 5 4 13t4 13l3 11q0 11 -1 11q2 18 6 31l2 9q2 4 2 7v7l3 6q-2 1 -5 3z" />
    <glyph glyph-name="A" unicode="A" horiz-adv-x="441" 
d="M358 0l-3 2v1v2h-1v-1q-1 0 -1 1v2l-1 -1v2l-1 1q-7 17 -23 86l-2 2q-1 1 -1 7l-2 7q-2 6 -2 12q-3 9 -3 15l-4 20q0 2 -4 17l-2 19q-1 6 -8 29q1 -3 -4 15q-4 -1 -17 -1h-1q-1 -1 -3 0h-3h-2q-1 -1 -3 -1l-2 1h-3q-4 0 -7 1h-6q-3 0 -4 1h-4h-9l-7 -1h-8l-10 -1h-10h-10
h-2l-1 -1l-2 1h-2q-3 0 -5 -1h-1h-1l-1 1h-9v-1l-3 1h-11v-3q-1 -2 -1 -6v-2l-2 -3l-1 -2l-5 -23h1v-1l-3 -6q-6 -21 -17 -72l-2 -11l-3 -10v-3q0 -4 -2 -6l-12 -38l-2 -9q-1 -7 -3 -9q-3 -7 -4 -9l-6 -16v-2q0 -1 -1 -1h-1l-1 -1v-2q0 -2 -3 -2l-2 -2q-2 -2 -3 -2v-1l-1 -1
q-14 0 -14 3l-3 3l-4 4q0 1 -1 1t-1 1v2l-1 2q-5 5 -9 15q-2 4 -2 6q2 25 13 63q2 6 4 11.5t3 10.5l2 12l2 12q4 11 8 29t6 31l1 4q1 1 1 3q0 3 1 4v3l5 23q-7 0 -7 2l-1 -1h-1v0q0 1 -1 1h-1l-1 1l-2 2l-1 1q-4 7 -1 8q0 1 0.5 3t1.5 2t1 1q-1 0 -1 1h1l1 1l2 4q4 6 5 6
q3 1 11 1q6 26 10 41.5t14 49.5v5v6v3q0 7 5 24q2 6 3 7l2 6v3l3 13q0 4 1.5 9t1.5 7l3 8q1 -1 3 -1v4q0 7 3 22q10 35 13 56l3 11v4q0 5 2 12l2 7q4 13 6 29l1 6v6q1 3 0 7q-1 5 0 6q2 20 13 50q6 21 8 26q5 7 5 8q1 3 8 1l-1 2l1 1l1 2l2 7v1l1 1q2 1 6 2.5t6 1.5
q6 0 8 -5l1 1q1 0 3 -2l1 -2l7 -5q8 -7 12 -13q14 -55 17 -78q3 -20 6 -31l4 -17l4 -15q3 -16 8 -40.5t9 -41.5l2 -4q0 -4 2 -10l2 -4l17 -71q7 -40 12 -54q1 -4 3 -18t7 -44l3 -4l3 -7v-3q4 -7 7 -26q1 -3 1 -7q-2 -3 0 -8l2 -2l3 -13l3 -17l1 -9h-2q4 -4 7 -23
q5 -31 10 -48q0 -2 0.5 -4.5t1.5 -3.5q0 -2 1 -3q2 -4 2 -9q0 -4 1 -5q2 -12 4 -19q0 -1 1 -3.5t2 -3.5q0 -1 2 -3t2 -3q5 -8 3 -25q0 -10 -1 -11t-1 -3t-7 -3l-1 -2l-2 -2l-10 -2q-11 -2 -16 -1zM281 293l-7 23q0 4 -11 56l-2 6q-1 1 -1 2.5t-1 1.5q-1 3 -1 8q0 3 -1 4
l-3 13l-1 8v1l-6 29v-1h-1l-1 9q-4 25 -19 87l-3 17l-11 -51v-3q0 -3 -3 -15q0 -1 0.5 -2.5t-0.5 -3.5q-1 -3 -1 -7q-1 -5 -3 -9l-3 -6q-5 -27 -8 -34l-5 -16q-1 -3 -5 -25q-1 -16 -3 -19q-1 -1 -4 -18q-5 -25 -10 -47l-2 -9v0h1l2 1h1l34 1l18 -2l4 2v0q2 1 8 1h2
q1 -1 3 -1h1h3h6l2 -1v-1q2 2 7 1l9 -1l9 1h2h2h1h1z" />
    <glyph glyph-name="B" unicode="B" horiz-adv-x="419" 
d="M289 365.5q18 -8.5 27 -15.5q20 -17 41 -54l2 -4l1 -3l3 -4q1 -1 1 -3q18 -52 15 -106q-2 -20 -13 -52v-4l-1 -6v-3q-2 -11 -9 -23q0 -1 -4 -5l-5 -5v-3q-12 -17 -18 -23l-6 -5l-1 1q-1 -6 -16 -16q-22 -14 -44 -24q-1 -1 -2.5 -1t-2.5 -1q-2 0 -7 -3q-1 -1 -5 -1l-12 -3
q-19 -4 -27 -4l-11 -2q-6 0 -12 -2q-24 0 -49.5 7t-35.5 13l-10 6q-2 1 -1 5l-6 5l-2 2l-3 2l-2 1q1 0 8 5q-7 16 -9 91l-2 2v7v7v6q-1 3 -1 7t1 7v8l2 37l1 9q1 4 1 10q0 15 -1 28l-1 23l-1 23q-1 13 -1 31t1 32v28v6q-1 2 -1 6t1 7v5v8v7q-1 1 -1 3q0 3 1 4v2q1 11 1 29
h-1h-1l2 9q1 12 -1 89v14v11l-2 2q0 3 1 5v3q0 9 2 43v10q0 8 1 10v8q0 9 2 15q1 0 1 1l-1 2h1h1l-1 2v1l2 1q1 0 1 1l3 5h2v1q3 1 8.5 2t8.5 1l4 -1l6 -3h1h2l1 -1l2 1q27 8 50 8q17 0 45 -5q16 -3 23 -6q22 -11 49 -35l2 -3l2 -2q1 0 6 -5q27 -36 38 -84q2 -10 2 -23
l-1 -24q0 -3 2 -9l1 -3v-6q0 -4 -2 -16q-1 -1 -1 -2.5t-1 -2.5l-3 -6l1 -2l-9 -24l-4 -6l-2 1v-3q0 -8 -8 -16q-15 -19 -30 -34l-3 -3l-3 -2q-4 -4 -6 -5l-10 -5l-2 -1q17 -4 35 -12.5zM158 354q-3 1 -7 1q-3 0 -3 4q0 1 -3 1v-10q0 -11 -4 -60l3 -11l1 -3q2 -14 1 -26
q0 -6 -1 -7q-2 -4 -2 -7l2 -3q-1 -3 -1 -13v-17l-1 -8h-3q3 -4 3 -16q0 -9 -0.5 -23t0.5 -32v-5q-1 -3 0 -4l1 -6v-5l-1 -6v-5q0 -6 2 -14q0 -2 1 -3q0 -4 3 -8l1 -2q1 -2 1 -9q0 -9 -2 -15q-1 -7 -3 -9l-2 -2q23 -4 46 -4q36 0 61 12l2 2q8 6 8 7q2 1 4.5 3.5t2.5 3.5t7 8
q5 6 14 22l6 12q10 23 11 71q1 9 1 23q0 13 -1 18q0 3 -1 4q-2 6 -1 9v3q0 4 -1 6l-2 6l1 2l-1 2q-2 12 -4 18h-1l-1 6q-5 22 -23 49l-9 12l-2 1l-2 3v1q-15 14 -27 18q-9 4 -34 2l-12 -1h-2l-3 -2v1l-2 -1h-2q-1 -1 -1 0h-2l-8 -2q0 1 -1 0h-1q-2 0 -4 2.5t-1 3.5l2 1
q-1 1 -3 1zM159 378l6 1h3h2h2q2 0 2 1h2h2q45 15 68 47v2l2 4q1 2 3 9q0 1 3 7l2 4l6 21l2 5l1 6q1 4 1 14t-5 47q-6 32 -7 34q0 2 -1 3q-2 4 -2 7v2q-1 1 -1 2.5t-1 2.5l-2 3l-1 1v2v2l-6 14h-1l-1 4q-12 23 -29 38q-7 7 -12 9l-2 1q-1 0 -2 1t-1 2q-24 9 -35 9
q-5 0 -15 -2q-3 0 -4 -1q3 -30 3 -49q0 -17 -0.5 -26t-0.5 -13q0 -9 1 -15l1 -14v-38q0 -31 1 -38v-4v-4q0 -4 1 -5v-4q1 -15 1 -97l4 3q4 2 10 2z" />
    <glyph glyph-name="C" unicode="C" horiz-adv-x="415" 
d="M374 87l-6 -8q0 -1 -7 -8q1 0 1 -1q-2 -1 -3.5 -3t-2.5 -4l1 -1l-7 -7q-27 -25 -63.5 -39t-75.5 -14q-13 0 -37 4l-4 1q-10 6 -22.5 15.5t-18.5 16.5q-7 9 -17 26q-5 8 -16.5 25.5t-16.5 30.5l-8 32q-12 54 -16.5 90.5t-4.5 73.5q0 27 4 88q1 3 1 9q-1 3 -1 7t1 9t2 7v11
v9v4q0 4 1 5t1 3q0 15 4 43h-1l3 12q15 48 49 102q14 23 20 36q3 6 31 26l2 3l11 5q41 16 77 16q19 0 33.5 -5t32.5 -16q18 -12 21 -18l5 -4q3 -4 3 -5l-1 -1q2 -2 4 -5t3 -4q0 -2 1 -3v-2l3 -8q1 -3 1.5 -4l1.5 -3v-3q0 -2 1 -3l1 -3q0 -3 -5.5 -8t-6.5 -3q-11 5 -14 11
q0 1 -1 0t-1 0q-1 0 -3 3l-4 4l-15 10q-11 7 -16 12q-33 30 -61 30q-27 0 -56 -29q-6 -5 -17 -31q-27 -63 -31 -102l-1 -10v-6v-5q-6 -96 -8 -160q-1 -27 -1 -83l3 -12l2 -6l1 -2q4 -16 6 -37q2 -6 0 -9q-1 -3 1 -10l2 -3q0 -2 10 -39l3 -11q-2 4 -4 2q0 -2 1 -3
q7 -6 11 -20q3 -8 4 -9q17 -37 36 -56q6 -8 10 -9l4 -2l3 -2q12 -5 13 -5q4 -1 13 -1q11 0 15 2q7 3 21 15q34 31 43 43l13 19l8 12l8 13q1 3 2.5 3t3.5 -2l2 -1l5 9l6 6q1 1 0 1q8 -10 11 -20q1 -4 1 -10q0 -16 -8 -27zM370 145v-1v1z" />
    <glyph glyph-name="D" unicode="D" horiz-adv-x="461" 
d="M84.5 20.5q-2.5 5.5 -3.5 8.5v2v2h-1q-2 0 0 2v3h-1q-1 -1 -1 0l1 2l-1 2q-4 20 -6 102l-1 2v7v6v6q-1 2 -1 5l2 12q0 10 1 16v14q0 4 1 7t1 8q0 12 -1 22l-1 17l-3 39q0 14 1 24v21v6q-1 1 -1 4t1 5v4v6v5q-1 1 -1 3l1 2v2q1 9 1 24h-1h-1l2 7q1 5 1 27q0 31 -1 52l1 14
q0 10 -1 12l-1 2q0 3 1 5v3l4 50q0 18 2 28q0 -1 2 13q0 11 1 15l2 8v3v3h1q1 0 1 3q-1 2 1 4l1 1q1 1 1 2.5t1 2.5q0 2 2 4q2 0 2 3q3 1 9.5 2t7.5 -1q0 -2 4 -3q3 -1 5 -6h1q2 0 3 -3q0 -2 1 -3q1 -2 7 -8q10 -13 11 -19q1 -7 1 -52q0 -19 -1 -32t-1 -29v-14v-14
q1 -5 1 -36l-1 -22q0 -4 0.5 -5.5t0.5 -2.5v-3v-4q0 -3 1 -4v-4q1 -11 1 -52v-40l-3 -44l3 -8l1 -3q2 -10 1 -19q0 -4 -1 -5q-2 -2 -2 -6l2 -2v-10q0 -10 -1 -14l-1 -6h-3q3 -3 3 -12q0 -10 -1 -24.5t0 -24.5v-4v-5l1 -2v-4v-5l-1 -5v-6q0 -10 1 -15v-4q0 -4 3 -10l2 -3
q1 -7 -4 -36q-3 -18 -4 -19q-3 -3 1 -3q1 -1 3 -1v1h4q1 -1 3 -1v1h2h4q30 6 62.5 26.5t53.5 47.5l1 3l10 16q1 4 3 8l3 6l5 8l4 10q11 23 18 44l8 24q12 54 12 136q-2 51 -4 77q-3 12 -3 14q-1 3 -1 9v7q-1 2 -6 21v4v3l-9 34h-1l-2 10q-17 50 -44 89q-11 15 -18 22l-2 1
l-3 4l-2 2q-23 20 -38 27.5t-38 11.5q-1 1 -22 1l-22 1l-4 -1l-2 -1v1q-2 0 -3 -1l-3 -1h-2h-2l-6 -3h-2h-2l-1 -1q-2 0 -5 2.5t-1 3.5l2 3q1 2 5 6v0q0 1 7 4q23 12 34 14q8 1 23 1q68 0 126 -38q21 -14 31 -26q26 -31 55 -88l3 -6q2 -4 2 -5l3 -6q1 -1 1 -2.5t1 -2.5
q11 -35 19.5 -84t9.5 -83q0 -24 -8 -86q-1 -2 -1 -7q0 -7 1 -10v-5q-2 -21 -7 -38q0 -2 -4 -9q-3 -7 -4 -10v-5l-15 -42q-2 -6 -5 -10l-1 -1q0 3 -1 4l-1 -3q0 -11 -14 -33q-26 -37 -46 -60l-6 -5l-7 -7q-2 -3 -5 -5l-15 -10q-22 -14 -30 -17l-13 -6l-6 -3l-6 -3
q-29 -10 -60 -10q-22 0 -33 3l-12 2q-3 2 -2 5q-1 1 -3.5 2t-4.5 1l-2 1q-1 1 -3 1l-2 1l4 3q-6 2 -9 4q-3 1 -5.5 6.5z" />
    <glyph glyph-name="E" unicode="E" horiz-adv-x="374" 
d="M288 350l-2 -2v0h-1v-1h-1v0q0 -1 -1 -1l-1 1q-7 -4 -30 -5v-1h-2h-2h-2h-1h-2h-2q-3 0 -4 1h-4h-3l-1 1l-6 -1l-4 -1h-5q-3 -1 -7 -1h-6h-5h-1l-1 -1l-2 1h-1h-3h-1h-1h-6l-2 1h-19h-3h-3l-1 -1v0l-2 1q-3 0 -5 1v-4q2 -3 -3 -48l2 -10l1 -2q2 -11 1 -22q0 -4 -1 -5
q-2 -2 -2 -6l2 -3v-11q-1 -5 -1 -14l-1 -7h-3q3 -3 3 -11l-1 -23q-2 -22 -1 -32v-5v-4q0 -2 1 -3v-4v-5l-1 -6v-6q0 -11 1 -16q0 -3 1 -4v-5l2 -5l2 -4q1 -10 -3 -37q-1 0 -1 -1h4h3h11h11h2h1h1h1q2 1 16 1l15 -1l14 -2l2 1l2 1q1 1 7 1l2 -1q0 -1 1 -1l1 1h4h4l2 -1v-2
q2 3 6 2q10 -2 15 -1h1h2l1 1h1h2l2 -1q2 -1 7 1h2l2 1l1 1h1h2q5 0 11 -1.5t8 -2.5l2 -1q1 -1 1 -6l2 -1l1 -2q-1 -1 -1 -6t-2 -13q0 -1 -2 -3l-4 -3v0h-1h-1h-1v-1v0h-2q-6 -2 -37 -4l-1 -1l-1 1h-3h-2l-2 -1l-2 1h-2q-3 0 -5 1h-5l-2 1h-3h-8l-5 -1h-6q-3 -1 -8 -1h-8h-7
h-1h-2h-2h-1q-2 2 -4 0h-1l-1 1h-8v-1l-2 1q-3 1 -27 1h-4h-5l-1 -1l-1 1h-1l-18 3l-4 1h-5l-10 2q-3 0 -3 1h-1h-1v1h-1h-1q-1 0 -1 1v1q-3 2 -3 3h-1q-1 1 -1 7q0 1 -2 5q-1 3 -3 5v2v2h-1v2v2h-1q-2 0 0 2v3q-4 23 -6 108l-2 2q0 4 1 7v7v6q-1 2 -1 6t1 7v6l2 32q0 5 1 9
q1 3 1 8q0 13 -1 24l-1 19v18q-1 11 -1 25q0 15 1 26v22v6q-1 1 -1 4q0 4 1 6v4v7v5q-1 1 -1 3t1 3v2q1 9 1 25h-1l1 7q1 8 1 47v34v14v12l-1 3q0 3 1 5v3l4 49q0 16 2 26q0 7 1 12l2 14q0 7 1 8q-2 2 -2 3h-1q-2 9 0 11l1 2l2 3v1h1l1 2q4 4 5 8l2 2h15q6 0 10 -1t9 -1
q3 0 5 1h4l13 -1h10h2h1h1l1 1h19h17l17 -2q2 0 3 1l2 1q2 1 8 1q2 0 3 -1q0 -1 2 -1l1 1h4h6l2 -1v-1q2 2 8 1l9 -1l10 1h2h2h1h1h3h2q4 -1 9 0h2l2 1l2 1l1 1h2q6 0 12.5 -1.5t9.5 -2.5l2 -1q1 0 1 -5l2 -1l2 -2q-1 -1 -1 -8l-2 -11q-5 -5 -7 -5h-1v-1h-1h-1v-1h-1h-1
q-7 -2 -45 -4l-1 -1l-2 1q-2 0 -3 -1h-2h-3h-3q-2 0 -2 1h-7h-6q-1 1 -3 1h-4h-9l-7 -1h-7q-4 -1 -10 -1h-9h-9h-1h-2h-2h-2q-2 2 -4 0h-1q-1 0 -1 1h-1h-9v-1l-2 1q-5 1 -19 1q1 -1 1 -4q2 -14 2 -51q0 -18 -1 -31t-1 -28l-1 -7l1 -8v-14v-37l-1 -22q0 -4 0.5 -6t0.5 -3v-4
v-4q0 -3 1 -4v-4q1 -12 1 -56h4q2 -1 5 -1h4h3h8q7 -1 7 0h2v0h1h1q3 1 12 1h11l11 -2l2 1l1 1q1 1 5 1l2 -1q0 -1 1 -1l1 1h3h3l2 -1v-1q2 2 5 1q6 -1 12 0h2h1l1 1h1h1l1 -1q4 0 7 1v0l4 2v1h2q5 0 9 -1l6 -2l2 -2v-5l2 -1v-1h1l-2 -18q0 -1 -2 -3z" />
    <glyph glyph-name="F" unicode="F" horiz-adv-x="367" 
d="M276 360l-2 -2t-2 -3h-1h-1v0q0 -1 -1 -1l-29 -4h-1h-1h-2h-2l-1 -1l-2 1h-2q-3 0 -4 1h-4l-2 1h-2h-6l-5 -1l-4 -1h-6l-6 1h-6h-1l-1 -1h-2v0h-3h-1v1h-1h-6v-1l-2 1q-3 1 -18 1h-2q0 -15 1 -28v-26l-3 -41l2 -8l1 -2q2 -10 1 -18q0 -3 -1 -4q-2 -2 -2 -5l1 -2l1 -10
v-12l-2 -6l-2 1q3 -5 2 -18q-1 -5 -1 -16q0 -15 1 -23v-4q-1 -3 0 -4q0 -2 1 -3v-3q0 -3 -1 -5l-1 -5v-4q0 -5 2 -17l1 -4q0 -4 3 -9l1 -4q1 -8 -2 -38l-5 -20q-2 -6 -2 -7q-2 -2 -10 -2l-3 -5l-2 -6l-10 3q-12 0 -23 6q-4 2 -5 9l-4 8v2v3h-1v2v2h-1v3v2q-5 18 -8 104l-1 2
v6v6l-1 5q-1 2 -1 5l1 6l1 5q0 9 1 15q1 5 1 13q0 4 1 7l1 4l-2 23l-1 15v16q-2 9 -2 20q0 13 1 22v20q-1 1 -1 5q-1 1 -1 4t1 5v4q1 2 1 6q-1 2 -1 5v3q-1 1 0 2l1 2v24h-1h-1l2 7l1 22l-2 62q0 8 1 15l-1 13l-1 3q0 4 1 6v3l3 60q0 19 2 35l-1 7l1 9q0 14 1 20l2 10v4v4h1
q2 0 -1 4v3l1 1l-1 1h-1h-1v1h-1h-1v0l-1 1l-3 3v0l-1 1q-5 9 -1 11l1 2l2 4v1v1h1l1 2q2 2 3 5q4 7 6 7q14 3 31 1q4 -1 6.5 -0.5t3.5 0.5l6 1h5h13q9 -1 13 0l1 -1h2l2 1h1q10 0 13 1h14q5 -1 11 -1l19 -3q2 0 3 1l2 1q6 2 9 2q2 -2 5 -2h1h4h6l3 -1v-2q2 2 8 1
q12 -2 19 -1h2h2l1 1h2l2 1l2 -1q5 -1 9 0l2 1h2q2 0 3 1l1 1l5 1q1 0 11 -2q6 -1 8 -3q1 0 2 -0.5t1.5 -2.5t0.5 -5l2 -2l2 -1l-1 -8q0 -10 -1 -13l-4 -4q-3 -1 -3 -3h-1h-1v-1h-1h-1v0q1 -1 -1 0q-1 0 0 -1q-6 -3 -48 -6h-1q-1 -1 -3 0h-3h-2q-1 -1 -3 -1t-3 1h-2
q-2 1 -7 1q-6 0 -7 1q-2 0 -3 1h-4h-9q-5 -2 -8 -2h-7h-11q-5 0 -9 1h-10h-2l-2 -1l-2 1l-1 1q-4 0 -5 -1l-1 -1q-1 0 -1 1h-1q-4 1 -10 1v-1l-2 1q-5 1 -31 1l-4 1h-5q14 -23 15 -29q2 -17 3 -67v-23q0 -20 -1 -31.5t-1 -17.5l2 -16v-15l1 -39l-1 -23q0 -4 0.5 -6t0.5 -3
v-3l-1 -4q0 -3 1 -4v-4l1 -1h1h3h9q7 -1 7 0h1h1h1q1 1 13 1h11l12 -2l2 1v1q2 2 6 0l1 -1h2h1h3h3l2 -1v-1q2 2 5 1q6 -1 12 0h1h1v0l2 1h1l2 -1h5l2 1h1v1l1 1h2l9 -2l5 -2l2 -1v-5l1 -1l1 -1z" />
    <glyph glyph-name="G" unicode="G" horiz-adv-x="406" 
d="M347 415q2 -13 2 -18v-5v-6h1q1 0 1 -5l-1 -6h1h1v-5v-6q4 -44 4 -68q0 -93 -27 -194l-1 -6q-3 -9 -25 -53q-8 -12 -17 -20q-25 -22 -43 -28q-19 -4 -21 -4q-7 -1 -19 -1q-28 0 -48.5 12t-38.5 40q-19 28 -39 87l-3 9q-6 11 -7 25l-1 8q-1 5 -5 22l-3 12q-1 3 0 7v5
q-3 20 -7 62h-1v20q3 144 18 228q4 21 15 57l5 19l1 8q6 17 9 22q18 28 32.5 41t43.5 28q36 18 74 18q14 0 21 -1q25 -3 32 -6l5 -3l6 -2v-1q3 -1 6 -3.5t5 -3.5q3 -3 3 -5q8 -8 9 -10q2 -4 2 -7l2 -4l1 -2v-1q0 -5 -7 -10q-3 -2 -4 -1q-3 3 -7 4q-5 2 -10 7v0l-1 -1
q-1 0 -4 3t-4 3q-21 12 -36 15q-14 2 -21 2q-35 0 -61 -22q-12 -11 -17 -20q-5 -7 -11 -29l-5 -20l-6 -24q-10 -34 -16 -79q-14 -106 -11 -179v-8l1 -10l3 -18q18 -126 44 -189q13 -32 24 -53l7 -6q3 -3 5.5 -6.5t3.5 -5.5q5 -5 7 -5h1q8 2 15 9l4 5l1 -2q0 3 10 22
q16 33 28 80l6 23l2 9q0 10 4 23l2 10q2 24 1 39v8q0 13 -2 21l-2 8q-2 35 2 90q3 45 4 49q2 2 2 7h-1h-3h-4l-2 1h-2h-4l-5 -1h-4q-2 -1 -5 -1h-5h-5h-1l-1 -1h-1l-1 1l-2 -1h-1l-1 1h-5v-1l-1 1l-14 -1h-3h-1v-1q-1 0 -1 1h-1q-4 0 -7 1h-2h-1h-2q-2 0 -2 1h-1h-1v1l-1 2
h-1q-2 6 -1 7v2v2v1v1q2 8 3 8.5t7 1.5h5h4h3l2 1h7q5 0 6 1h1h1h1q1 1 6 1h8h5l10 -1l2 1l1 1q2 2 5 0h1q0 -1 1 -1l1 1h2h3l2 -1v-1q2 2 4 1q7 0 10 1h1h1h2h1h1h3l1 4l3 -2l1 1q1 1 7 -1l4 -1l2 -1v-4l1 -1l1 -1q5 -3 12 -10q4 -6 6 -19z" />
    <glyph glyph-name="H" unicode="H" horiz-adv-x="506" 
d="M374 37q-4 3 -5 3v1v2l-1 -1v2v1h-1q-1 0 0 1v1q-6 15 -9 90l-2 2q0 5 1 8q0 5 -1 7v6q-1 2 -1 6l1 8v7q0 12 1 20v17l1 10v9q0 16 -1 29l-2 23l-1 23l-2 30v3q-1 0 -36 -2h-1h-2h-3l-1 -1h-3h-3l-1 1q-4 0 -6 1h-5h-3h-3h-7h-7h-6q-3 -1 -8 -1h-8h-8h-1h-2h-2h-1h-4h-1
q-1 0 -1 1h-1h-8v-1l-3 1h-27h-4h-5l-1 -1q-1 0 -1 1h-1q-11 0 -18 1h-4q-5 0 -6 1h-2v-11l-2 -48q0 -3 3 -8l1 -4q1 -5 1 -21q0 -4 -1 -5q-2 -2 -1 -6l1 -3v-11v-14l-1 -7h-3q3 -3 3 -13q0 -9 -0.5 -22t0.5 -31v-5v-4q0 -2 1 -3v-4v-6l-1 -5q0 -16 1 -23q1 -1 1 -4
q0 -6 3 -10l2 -4q2 -11 -3 -38q-3 -20 -4 -21l-3 -6q0 -2 -9 -2l-2 -5l-3 -4l-10 2q-11 0 -23 5q-3 2 -6 9l-3 7v3v2h-1v0q-2 0 0 2q0 2 -1 2v1q-1 -1 -1 0v2v2q-5 26 -8 110l-1 3v7v6l-2 12q0 4 1 7v6q1 5 1 18q0 11 1 14q0 5 1 9v8q0 13 -1 24l-2 18l-1 18l-2 25v24v24
q0 4 -1 6q-1 1 -1 4q0 4 1 6q1 3 0 4v7v5q-1 1 -1 3t1 3v2v25h-1l1 8q1 13 -2 84q0 8 1 15q0 11 -1 12l-1 3q0 3 1 5v3q0 21 3 54q0 17 2 29v13q0 13 3 25v2v4v0q1 -1 2 0v3q-1 1 -1 3l1 1l2 1q1 2 1 6l3 3l1 2v1q2 2 8 3t9 0l4 -4q4 -1 6 -6h1h2l1 -2q0 -3 1 -4q1 -2 7 -8
q11 -13 11 -20q2 -11 3 -38t0 -50q-1 -15 -1 -31q0 -9 1 -16v-14q1 -5 1 -34q0 -30 1 -37v-3v-4q0 -3 1 -4l1 -4q1 -8 1 -31l1 -30h14h11h10h5h5h13h10h2h1l1 1h1h19h14l16 -1l3 1q2 1 8 1l2 -1q0 -1 1 -1l1 1h4h5l2 -1v-1q3 3 7 1l8 -1l8 1l1 -1l2 1h1h1h2l2 -1q5 0 8 1h1
h2l2 1l1 1q3 1 10 -1v29v6q-1 2 -1 6t1 7v5v8v7q-1 1 -1 3q0 3 1 4v2v30h-1l1 9q1 5 1 30q0 35 -1 59v14v12l-1 3q0 3 1 4v3q2 30 5 45q0 12 2 20q4 23 6 25v1v2h1v2v1l2 1h1q1 4 4 5q1 0 1 1h1q1 1 9 1q7 0 8 -1l3 -2q3 -1 5 -3q0 -2 2 0h1q0 -2 1 -3l1 -1l7 -5
q10 -7 10 -11q1 -5 1 -38q0 -17 -3 -53q0 -8 1 -15v-14v-40q0 -34 1 -35v-4v-4q0 -4 1 -5v-4l3 -120q1 -2 -2 -59l3 -12l1 -3q2 -14 2 -26q0 -6 -1 -7q-2 -2 -1 -7l1 -3v-13v-17l-1 -8h-3q3 -4 3 -16q0 -39 1 -56v-5v-4l2 -6q0 -3 -1 -5l-1 -6q0 -6 2 -20q0 -2 1 -3v-4l3 -4
q1 -1 1 -3l1 -7q0 -7 -3 -18q-3 -10 -4 -11l-3 -3q-1 -1 -9 -1l-3 -2q-2 -2 -3 -2h-12l-21 3q-1 0 -4 4z" />
    <glyph glyph-name="I" unicode="I" horiz-adv-x="241" 
d="M97.5 14.5q-2.5 6.5 -3.5 9.5v2v3h-1v2v2h-1q-2 0 0 2v3q-6 32 -7 121l-1 3q-2 2 0 7v7v6q-1 3 -1 7l1 8v6q1 5 1 19q0 11 1 15q0 5 1 9v9q0 14 -1 26l-1 18l-1 20q-1 11 -1 25v25v25v4q-1 2 -1 5l1 6v4v7q0 4 -1 6v2q0 3 1 3v2v25h-1l1 7q1 15 -2 81q0 8 1 15q0 9 -1 10
l-1 3q0 3 1 4v3q0 7 2 49v12q0 11 1 14q0 6 1 11q0 10 1 14q0 7 1 8l-1 3q0 2 1 2h1v3v2l1 1l1 1q1 1 1 2.5t1 2.5q0 1 2 3l1 2v1q9 3 16 3q1 0 2 -1t4 -2t5 -5q0 -1 1 0h2l2 -6q7 -3 16 -15l4 -8q4 -60 4 -79q-1 -14 -1 -29q0 -18 2 -28q0 -18 1 -35v-34v-3v-5v-1t1 -2
t1 -3q0 -20 1 -32l1 -68l-3 -50q0 -4 2 -10l2 -2q1 -6 1 -23q0 -5 -1 -6q-2 -2 -2 -6l1 -2v-13v-15l-2 -7q-1 1 -2 0q3 -3 3 -11q0 -16 -1 -24q0 -6 -0.5 -15t0.5 -21v-5q-1 -4 0 -5q0 -3 1 -4v-4l-1 -6q-1 -2 -1 -5q0 -17 1 -26q1 -1 1 -3q0 -5 3 -11q2 -4 2 -5
q1 -11 -3 -42q-2 -7 -3 -13t-2 -8q0 -1 -0.5 -4.5t-3 -4.5t-7.5 -1q-1 0 -4 -5l-2 -5l-13 3q-12 1 -20 6q-3 2 -5.5 8.5z" />
    <glyph glyph-name="J" unicode="J" horiz-adv-x="383" 
d="M103.5 197q2.5 -9 2.5 -12v-4v-3h1v-3v-4h1q1 0 1 -3l-1 -4q21 -83 65 -127h2q9 -3 14 -3q4 0 11.5 3t10.5 6q12 12 19 28l6 18q2 14 2 55v29v28q3 45 3 66v7q-1 3 -1 7q0 5 1 8v5q1 3 1 10q-1 3 -1 7v4q-2 2 0 4q1 1 1 3v35h-1l1 10l1 31q0 33 -3 82q-1 3 -1 18
q0 14 -1 17l-1 4l1 6v4q-1 8 -1 33l-1 33v17q-1 8 -1 17l-1 33q-2 5 0 11v3l-1 3l1 1q1 1 0 2v4l1 2l1 1q1 2 1 6q0 3 2 5q1 0 1 2v1q1 2 7.5 3.5t9.5 1.5q0 -2 4 -3q5 -1 6 -6l2 -1l1 1l2 -3l2 -4q2 -3 8 -8q13 -13 14 -21q10 -53 11 -113v-36q3 -24 3 -39q2 -46 2 -97v-6
v-5q0 -4 1 -6v-5q1 -20 0.5 -46.5t-0.5 -53.5q-1 -12 -1 -39l-5 -64l2 -13l1 -3v-9q0 -13 -3 -27l-5 -11q-4 -6 -5 -11l-1 -4q-14 -24 -28 -39q-3 -1 -8 -6l-2 -1l-1 1q-9 -12 -29 -17q-39 -9 -71 -8q-6 1 -15 3t-14 4q-8 3 -20 12q-20 16 -37 38q-2 2 -12 16l-5 7
q-6 6 -7 9q-7 20 -7 44q0 9 2 27l6 32l3 10q2 3 9 2l3 6l3 6l11 -2q14 -3 21 -10q3 -3 5.5 -12z" />
    <glyph glyph-name="K" unicode="K" horiz-adv-x="452" 
d="M359.5 11q-2.5 2 -4.5 3v1h-1q-1 0 0 1v1h-1h-1v1v1q-4 7 -9 50l-1 1v3q0 3 -1 4v3q-1 1 -1 3v3v4v10v7v5v4q0 4 -7 22l-3 12q-3 8 -7 23l-5 14q0 2 -1 3q-2 4 -2 5v2l-2 4q-1 1 -1 3l-1 1q-1 0 0 1v2l-6 13l-1 -1v5q-6 14 -24 40l-3 4l-6 8l-1 1l-2 2v2q-3 3 -9 13
l-10 11q-1 1 -2 2.5l-3 4.5l-6 6l-7 7l-6 5q-1 0 -1 -1h1l-4 -3q-6 -4 -19 -15l-15 -12q-4 -1 -10 -7l-1 -1q0 -1 -2 -1h-1q-9 -5 -17 -8v-8q0 -6 -1 -7q-2 -2 -2 -6l2 -3v-12q0 -11 -1 -15l-1 -8q-1 2 -3 0q5 -5 3 -22q-2 -20 -2 -30l1 -21v-4v-6q0 -2 1 -3v-4v-7l-1 -6v-7
q0 -12 1 -18q0 -3 1 -5v-5q0 -2 2 -6l2 -5q2 -11 -3 -43l-5 -22q-2 -6 -2 -8q-2 -2 -10 -2l-2 -5l-3 -5q-4 1 -15.5 3.5t-17.5 5.5q-3 2 -5 10q-3 8 -4 8v3v2q-1 0 -1 1v2v3h-1q-2 0 0 2v3q-6 32 -7 124l-1 2v8v7v7q-1 3 -1 7q0 8 2 14q0 12 1 19v16q0 5 1 9t1 9q0 15 -1 26
l-1 19l-1 20q-1 11 -1 26v26v24v5q-1 2 -1 5q0 8 2 10l-1 12q-1 1 -1 3t1 3l1 2v25h-1l1 8q1 6 1 28q0 31 -1 52v14v12l-1 2q0 3 1 5v3l3 48q1 1 1 12q0 10 1 13l2 12q0 10 1 14q0 6 1 7q1 0 1 2q-1 1 -1 3h1h1v2v3l1 1l1 1q1 1 1 2.5t1 2.5q0 1 2 3q1 0 1 1l1 1q4 1 9 2
t8 0q0 -2 4 -3q3 -1 5 -5h1h2l1 -3l1 -2l7 -7q10 -9 12 -17q3 -35 1 -78q-1 -13 -1 -28q0 -8 1 -14v-14v-37l-1 -22q0 -4 0.5 -6t0.5 -3v-4v-4q0 -3 1 -4v-3q2 -48 2 -101q0 -14 -3 -40l4 3l9 9l23 23q0 1 1 2t2 1l2 4q27 35 35 48l11 16q4 5 5.5 7.5t2.5 3.5q2 2 2 7v3
l7 15l4 4l3 4v2q2 9 9 20l4 5l2 -1v2q0 5 5 17q8 15 17 42l2 5l1 4q0 2 2 8l2 6l2 5q6 16 7 25l1 6v5q1 2 1 7l-1 5q2 11 13 46q7 23 9 25q2 3 4 9q2 2 9 1q1 0 4 6q3 5 4 5q7 -3 10 -4q14 -7 18 -12q2 -4 4 -15v-10v-2l-1 -4h1l-1 -4l-1 -2q0 -1 1 0q1 0 1 -1l-1 -3
q-1 -1 -1 -3q-4 -47 -35 -134v-3l-3 -6t-3 -8l-2 -5q-1 -7 -6 -13l-3 -6l-16 -28q-3 -3 -4 -6l-5 -7l-18 -33q-9 -15 -16 -25t-13.5 -17.5t-10.5 -11.5q15 -7 26.5 -16t34.5 -32l15 -15q8 -10 16.5 -22t11.5 -17l2 -2l1 -2l2 -2l2 -2q17 -30 28 -61l6 -32q0 -1 2 -3l3 -3
q2 -3 4 -14q2 -1 0 -3t-1 -4l1 -2q1 -1 1 -3t1 -4q0 -6 1 -9l-1 -4h-3q5 -4 4 -12v-7q0 -7 2 -19v-3v-2l1 -2l0.5 -1.5t-0.5 -3.5q-1 -1 -1 -3q0 -5 2 -11q0 -3 2 -5l2 -2l1 -2l1 -4q0 -5 -3 -13l-4 -7l-3 -3l-9 -1q-2 0 -3 -1l-1 -1l-2 -1l-33 2q-2 1 -4.5 3z" />
    <glyph glyph-name="L" unicode="L" horiz-adv-x="362" 
d="M325 12q-2 -2 -3 -2h-1v0v0h-1v-1h-2q-6 -2 -34 -2h-1h-2h-3l-2 -1h-1h-3l-2 1q-4 0 -6 1h-5q-2 0 -3 1h-3h-4h-6l-4 -1q-4 0 -7 -1t-8 -1h-8h-9h-1h-2q-1 -1 -2 0h-2h-4v-1l-2 1v0h-8v-1l-3 1l-26 -1h-5h-3l-1 -1h-1l-1 1h-11q-1 -3 -2 -3l-13 2q-14 3 -19 7q-4 1 -6 10
l-4 8l1 3q0 2 -1 2h-1v2v3h-1v3v2q-4 25 -6 122l-2 2q0 5 1 8v7q-2 6 -2 13q0 4 1 7t1 7q0 18 2 34l1 8v9q1 3 1 10q0 10 -1 15l-1 18q-2 10 -2 44l-1 11l1 15v23v5q-1 2 -1 5l1 6v4v6v5l-1 3q0 2 1 3v2q1 7 1 25h-1h-1l2 7q1 15 -2 80v14v11l-1 3v4l1 3l2 49v13q0 10 1 13
q0 7 1 13q0 10 1 14q0 6 1 7v3v3h1v2v3l1 1l1 2l2 4q0 2 2 4q1 0 1 1v1q2 2 8 3t10 0q0 -2 4 -3q3 -1 5 -5q0 -2 2 0h1l3 -6q11 -11 15 -16l4 -8q4 -21 4 -81q-1 -13 -1 -28q0 -8 1 -14v-14q1 -6 1 -34t1 -34v-4v-4q0 -3 1 -4v-3q1 -9 1 -31v-39q0 -24 1 -29l-4 -48
q0 -3 1 -4l3 -9q2 -11 1 -22q0 -5 -1 -6q-2 -2 -2 -6l1 -2v-12v-15l-2 -7h-2q3 -3 3 -11l-1 -25q-2 -23 -1 -35v-4v-6q0 -2 1 -3v-4v-6l-1 -6v-7q0 -12 1 -18l1 -4q0 -5 3 -11l1 -5q2 -10 -3 -42v-1h2q6 0 11 1h11h2h1h2v1q3 1 11 1t13 1h10l17 -1l2 1l2 1q2 1 7 1
q1 -1 3 -1q0 -1 1 -1l1 1h5h4l3 -1v-1q2 2 7 1l8 -1l8 1l2 -1h1h1l2 1l2 -1h1q5 0 8 1h1h2l2 1l1 1h3l9 -2q6 -1 6 -3l2 -1q2 -1 0 -6l1 -1l2 -2q-1 -1 -1 -5q0 -2 -1 -6.5t-3 -7.5q0 -1 -2 -3z" />
    <glyph glyph-name="M" unicode="M" horiz-adv-x="643" 
d="M514.5 20q-2.5 5 -3.5 8v2v2h-1v2v2v0v0q-2 0 0 2l-1 2q-4 17 -7 101l-1 3v6v7v5q-1 2 -1 6t1 7v6q0 10 1 17v14l2 16q0 13 -1 24l-2 19l-1 18q-1 11 -1 25l-1 9l1 16v24q0 4 -1 6q-1 1 -1 5l1 6l1 4v7q-1 2 -1 5l-1 3q0 3 1 4l1 2v26h-1h-1l2 8q1 12 -1 79l-1 -2
q-1 -4 -2.5 -9t-3.5 -12l-7 -19l-4 -10l-3 -10q-5 -19 -8 -31q-3 -9 -4 -15t-2 -8q-2 -12 -15 -55q-10 -39 -18 -60q-1 -1 -1 -5q-2 -10 -4 -13q-4 -7 -4 -12q-1 -3 -1 -7l-1 -3q0 -3 -3 -6q-4 -15 -9 -28h1l-2 -8q-12 -30 -24 -81l-3 -11l-3 -11v-3q0 -2 -1 -3t-1 -3
q-2 -5 -13 -35l-2 -6l1 -6q-1 -2 -1 -5q1 -1 -0.5 -2t-4.5 -2v-3q-1 -4 -2 -4h-2l-3 -4v-1v-1h-1v-1v-1h-1h-1l-4 -2h-1q0 -1 -1 -1q-2 0 -6 1t-6 2q-1 0 -3.5 1.5t-3.5 3.5h-1q-1 0 -1 1l-1 1v1q0 2 -3 5q-8 6 -7 11q0 7 3 17q-5 10 -28 79l-2 2l-2 8l-3 6l-2 6q-3 6 -4 13
q-1 2 -1 4t-1 3l-10 34q1 -1 -2 9l-3 9q-3 6 -10 27q-3 8 -5 12.5t-3 6.5l-7 21q-13 32 -19 55l-10 25q0 4 -1 6q-4 9 -5 12l-1 4q-1 5 -2.5 8l-2.5 5q-2 6 -2 7l-1 2q-2 9 -4.5 15.5t-4.5 11.5h-1l-2 8q-3 11 -24 71v-2q0 -20 -1 -39l-1 -25l1 -16v-4q-1 -2 -1 -5t1 -4v-4
q1 -7 1 -27q0 -24 -1 -39l-1 -48l-5 -53l3 -11l1 -2q1 -3 1 -10q0 -9 -1 -14q0 -5 -1 -6q-2 -2 -2 -6l1 -3v-11q-1 -6 -1 -16l-2 -7q-1 1 -1 0q1 -1 1 -7q0 -8 -1 -14q0 -8 -0.5 -19t0.5 -26v-5l-1 -4q0 -2 1 -3v-3v-5l-1 -6l-1 -10l1 -10q0 -2 1 -3q0 -6 2 -9l1 -4v-4
q0 -9 -3 -26q-3 -14 -4 -15t-2 -3.5t-9 -2.5q-1 0 -4 -3l-2 -3l-11 2q-14 2 -20 4q-2 1 -4.5 5.5t-3.5 6.5v2v1v0v1q-1 0 0 1v2h-1h-1v1v2q-4 17 -4 97l-1 2q0 4 1 7v7v6q-1 2 -1 6t1 7l1 6q0 11 1 18t1 15q2 8 2 18q1 5 1 26l-1 20v21q-1 11 -1 27t1 29q1 12 1 26v6
q-1 2 -1 5q0 4 1 7v4v8v6v3v4v2q1 11 1 29h-1l2 8q1 14 1 94q0 9 1 16v14l-1 3q0 4 1 6v3l4 57l2 14q0 13 1 16q0 7 1 13q0 11 1 16l2 9v3v3v0v3q0 2 2 4l1 1l2 6q0 1 2 3q1 0 1 2v1q16 5 17 2q0 -1 3 -3q4 -4 5 -6q0 -1 1 0h2q0 -2 1 -3q0 -3 1 -4q1 -2 7 -8q8 -11 10 -19
q1 -9 1 -29q3 -11 6 -16l11 -30q4 -19 8 -28l11 -29l26 -72q2 -2 2 -8l3 -4l1 -4q8 -19 13 -34l15 -42l11 -32l16 -54l2 -4l4 -6l1 -2q5 -8 8 -23l2 -6q0 -4 1 -7l2 -3q3 -8 5 -12l5 -15l1 -8l-1 -1q4 -6 8 -21q12 -39 15 -46q1 -1 1 -2.5t1 -2.5l3 -6l2 -4v-2q0 3 2 9
l20 68q0 3 1 5q2 6 2 8q0 3 1 4q6 28 19 68l14 48l19 60q2 2 2 13v3q1 8 8 27q2 6 3 7t3 7v3l5 15l5 18l3 8l2 -1v3q0 7 6 23q14 45 17 55l2 5q1 4 1 9q0 3 1 4l3 6l2 6q3 8 7 24l1 10v6v4q0 10 13 34q4 11 7 14q1 1 2 3t3 2t5 -1q0 1 2 3q1 0 1 2q0 1 1 1q3 1 9 2.5t7 -0.5
q0 -2 4 -3q3 -2 5 -7h1q0 1 1 0l1 -3l1 -3l7 -9q10 -13 11 -20q3 -53 2 -92q-1 -15 -1 -33q0 -9 1 -16v-15q0 -48 2 -74v-4q-1 -3 0 -4q0 -3 1 -4v-4q1 -8 1 -30l1 -29q0 -41 1 -43l-3 -49l1 -4l2 -6l1 -2q0 -2 0.5 -8.5t-0.5 -12.5v-6q-2 -2 -2 -6l2 -2v-11v-14l-2 -7
q-1 1 -2 0q3 -3 3 -10q0 -15 -1 -22q0 -5 -0.5 -13t0.5 -19v-4v-4q0 -2 1 -3v-4v-5l-1 -5v-6q0 -10 1 -15q0 -3 1 -4q0 -6 2 -9l1 -4v-6q0 -10 -3 -28q-1 -16 -3 -18q-2 -4 -2 -6q-2 -2 -10 -2l-2 -4l-2 -3l-10 2q-13 0 -21 5q-3 1 -5.5 6z" />
    <glyph glyph-name="N" unicode="N" horiz-adv-x="517" 
d="M429 714q3 -5 4 -5v-2l-1 -1q0 -1 1 -1h1l-1 -1q0 -2 1 -2h1v0v-2v-1q2 -14 4 -104l1 -3v-7v-8l1 -6v-7v-8l-1 -8l-2 -39v-9q-1 -5 -1 -11q0 -10 1 -16l1 -37q1 -8 2 -24t1 -30v-30q0 -23 1 -30q0 -3 1 -5v-6v-7l-1 -5v-8q0 -5 1 -6v-4v-3q-1 -1 -1 -3v-29v0h2l-2 -8
q-1 -15 2 -87v-14v-10l2 -3q0 -5 -2 -7q0 -10 -2 -42q0 -11 -2 -19l-1 -17l-3 -6v-1v-2h-1v-2v-1l-1 -1h-2l-1 -2q-2 -2 -3 -2l-1 -2v0q-4 -1 -9 -1.5t-8 0.5l-4 2l-6 3h-1h-1q-1 0 -1 1l-2 2q-8 3 -15 10q-3 2 -3 4q-2 12 -2 28q-3 5 -32 67l-2 2q-1 2 -3 5.5t-3 7.5
q-4 4 -6 10q-1 1 -1 3t-1 4q-2 6 -3 7q-8 21 -15 34q-1 1 -3 8q0 2 -4 9l-13 26l-10 19q-3 7 -10 20.5t-14 25.5q-6 11 -25 54q-4 6 -6 11l-3 7l-2 4l-3 8l-4 5l-1 3l-2 6l-13 28l-1 -1l-3 9l-42 86q-1 2 -2 4.5t-2 5.5q-2 -8 0 -10l1 -12q0 -5 -1 -8l-1 -8q0 -20 -2 -36v-9
q-1 -4 -1 -9q0 -15 1 -26l1 -20l1 -20q1 -12 1 -27v-26v-25q0 -3 1 -5v-5v-6l-1 -4q-1 -4 0 -7v-6l1 -2q0 -2 -1 -3l-1 -2v-26h1l-1 -7l-1 -28l1 -51q1 -3 1 -13l-1 -12l1 -2q2 -2 0 -4q-1 -1 -1 -3q0 -18 -3 -45q0 -15 -2 -23l-2 -23l-2 -6v-2v-3h-1q-2 0 0 -2q0 -3 -2 -3
l-1 -1q-1 -1 -1 -4l-3 -3q-1 0 -1 -1v-1q-4 -1 -9 -2t-9 0q0 2 -3 3t-6 4q0 1 -1 1q-1 -1 -1 0q-1 0 -1 2l-2 2l-7 6q-11 8 -11 15q-2 16 -2 47q0 18 1 25q1 12 1 26v14q-1 6 -1 13l-1 13l1 23q0 29 -1 31v4v3v5q-1 1 -1 3q-2 48 -2 102l3 51q1 1 0 4l-2 6l-1 3q-2 13 -1 23
q0 5 1 6t1 7l-1 2v13v16l2 7h2q-3 5 -3 12l1 27q2 22 1 35q-1 2 0 6v4q0 3 -1 4t-1 4l1 6l1 6v8q0 11 -1 17v5q-2 10 -3 11l-2 4q-1 12 3 42q3 20 4 21l3 7q0 2 9 2l2 5l3 5l11 -2q12 -1 22 -7q3 -2 5.5 -8t3.5 -9q1 0 1 -2q-1 -1 -1 -3h1h1v-3v-2h1q22 -44 34 -70l12 -29
q1 -2 7 -15l7 -14q2 -3 17 -35q14 -29 19 -37l2 -4q1 -1 1 -2.5t1 -2.5l3 -4l1 -4l31 -62l23 -46l23 -54l7 -10l2 -2l12 -22q1 -7 4 -14l2 -2q1 -1 1.5 -3.5t3.5 -7.5l7 -16l3 -7l-2 -1q5 -5 12 -20l3 -8q-2 40 -2 39v5v4v5q-1 1 -1 3q-2 42 -2 85q-2 36 -2 34l3 60l-3 12
l-1 3q-2 14 -2 27q1 2 1 4t1 3t1 7l-1 3v14v18l1 8q2 -1 3 0q-4 6 -3 25q2 22 2 31l-1 21l1 6q0 3 -1 4v4q-1 1 -1 4l1 6l1 6v6q0 11 -1 16v5q0 5 -2 9l-2 4v5q0 13 5 27q3 13 5 15l3 5q0 2 9 0l2 2q3 3 4 3q4 0 14.5 -2t16.5 -5z" />
    <glyph glyph-name="O" unicode="O" horiz-adv-x="455" 
d="M306 161q0 -6 1 -6t1 5q-2 13 3 40q1 6 1.5 10.5t1.5 6.5q6 50 6 102q0 24 -1 36l-1 28l-3 21l-1 8l1 10q-2 18 -2 17q-5 42 -10 67q-3 15 -6 23t-6 15q-1 3 -2 5.5t-2 3.5q-3 8 -14 48q-8 28 -9 29l-9 27q0 5 -1 7q-1 1 -2 5t-2 5v0q-20 6 -32 6q-26 0 -43 -33
q-42 -85 -50 -177q-7 -69 -7 -137q0 -35 1 -52q2 -10 2 -20l3 -21q13 -60 32 -114t34 -74q20 -24 44 -24q3 0 13 2q7 2 12 12q11 15 17 27q1 4 2.5 5.5t1.5 2.5l5 10l1 5q3 9 15 53l2 6l2 7zM274 694q7 0 17 -9q5 -4 7 -4t3 -3l3 -4l1 1l5 -9q1 0 1 1h1q1 -1 2 -2.5l3 -4.5
q25 -49 43 -135.5t24 -183.5l1 -9q1 -14 0 -40.5t-2 -42.5t-6 -42q-10 -53 -23 -91q-8 -21 -18 -39q-23 -40 -53 -60t-65 -20q-14 0 -29 3q-46 10 -85 67q-2 3 -6 9.5t-7 15t-7 21.5q-5 13 -6 16l-4 13q-1 4 -2.5 8t-2.5 8v6q-7 36 -11 69h-1h-1v22l-1 57q0 114 12 183l8 35
l8 32l1 7q0 2 2.5 7.5t4.5 10.5q16 36 26.5 53.5t28.5 35.5q14 16 30 21.5t38 6.5q17 0 27 -2l6 -1l6 -1v-1h7q4 -1 6 -2t5 -3h3z" />
    <glyph glyph-name="P" unicode="P" horiz-adv-x="401" 
d="M152 321q3 -1 7 -1h2l2 -1q0 1 1 1h2l2 -1v1h2q1 -1 3 -1q52 9 83 43l1 2q0 1 3 4q4 5 5 10q1 3 5 9l3 5l12 25l5 14q7 24 7 76l-1 21q0 14 -1 20l-3 8v5v3q0 4 -1 6l-2 6q-1 1 0 2v2q-1 6 -5 18h-1l-1 5q-7 23 -26 48q-8 11 -10 12l-2 1q-1 0 -2 1.5t-1 2.5
q-17 11 -27 14.5t-24 4.5q-9 0 -17 -1l-13 -1q-2 0 -3 -1l-2 -1l-1 1h-2l-2 -1q-1 -1 -2 0h-2q-1 -1 -3 -1l4 -8q2 -20 2 -51q0 -18 -1 -26l-2 -27q0 -8 1 -14v-14l-1 -36l-1 -22q0 -5 0.5 -7t0.5 -3v-3v-5q0 -2 1 -3v-4q1 -5 1 -53l-1 -49q0 -14 -3 -37q2 1 8 1zM86 14
q-3 7 -4 7v3v2h-1v2v3h-1q-2 0 0 2v3q-5 23 -7 119l-2 2q0 5 1 8v7q-2 6 -2 13q0 4 1 7t1 8q2 18 2 35l1 8q1 4 1 9q0 15 -1 26l-1 20v20q-1 11 -1 26t1 27v23v6q-1 1 -1 5l1 6l1 4v7q-1 2 -1 5v3q0 2 1 3v2q1 10 1 25h-1l1 8q1 8 1 48v33l1 13v12l-2 2q0 3 1 5q1 1 1 3
l4 47q0 14 2 24q0 7 1 12q0 9 1 13l2 6v3v2h1v3v3l2 1h1q1 1 1 2.5t1 2.5q0 2 2 2l1 2v1q4 1 10 2t7 -1l4 -2q4 -1 6 -5q0 -1 1 0h2q0 -2 1 -3q0 -2 1 -2l5 -6l4 3q1 0 0 1l6 3q18 11 24 13q17 4 38 4q31 0 66 -14q18 -8 24 -13q21 -17 45 -51l2 -3q1 -3 2.5 -5t2.5 -3t1 -3
q20 -48 22 -103q0 -16 -9 -54v-4q0 -4 1 -6v-3q-1 -10 -6 -24q0 -1 -4 -5q-1 -1 -3 -7v-2q-10 -23 -13 -26l-5 -7l-2 1q0 -8 -12 -20q-18 -19 -36 -34l-4 -3l-4 -3q-3 -3 -6 -4l-11 -6l-9 -3l-8 -4l-6 -2q-1 -1 -2.5 -1t-2.5 -1l-4 -2l-9 -4q-25 -5 -44 -4q-15 0 -25 2h-1
q2 -13 1 -23q0 -5 -1 -6q-2 -2 -2 -7l2 -2q-1 -3 -1 -12v-16l-2 -7q-1 1 -2 0q3 -3 3 -11l-1 -26q-2 -23 -1 -35v-4v-5q0 -3 1 -4v-4v-6l-1 -6v-7q0 -11 1 -17q0 -3 1 -5q0 -4 3 -10l1 -4l1 -10q0 -12 -3 -30q-3 -20 -4 -21l-3 -7q0 -2 -9 -2l-3 -5l-2 -5q-2 2 -13 3
q-14 2 -20 5q-3 2 -6 9z" />
    <glyph glyph-name="Q" unicode="Q" horiz-adv-x="504" 
d="M451 -12q-2 -2 -5 -3l-4 -1h-1h-1v0q0 -1 -1 -1h-2v-1h-1h-1l-12 -1q-17 0 -46 8l-1 -1l-4 2q-1 1 -3 1q-4 0 -6 2l-4 2l-2 2q-9 5 -14 10l-6 6l-8 6l-9 7q-1 0 -4 3q-14 -12 -28 -17q-23 -10 -52 -10q-35 0 -70 18.5t-65 56.5q-8 10 -12 18t-11 28l-14 38l-2 14
q-5 23 -11 71h-1v22q3 149 24 237l21 66l1 7q2 6 9 17q19 37 31 53.5t32 34.5q17 16 33 21.5t38 6.5h9q12 0 14 -1h5l4 -1v-1l4 -1l5 -1l2 -2l1 -2l12 -9q0 -1 2 -3l1 -1v-2l-2 -8q-2 -3 -3 -2t-6 1t-9 3q-1 0 -1 -1v-1l-8 4q-18 4 -28 3q-24 -2 -44 -35q-48 -82 -64 -175
q-17 -106 -14 -185q1 -25 4 -40q12 -63 31 -116.5t39 -73.5q12 -13 28.5 -20t31.5 -7q8 0 11 1q7 0 24 27q-1 0 -4 3q-1 1 -1 3v1l-4 5l-1 1q-1 1 0 2l-1 1l-2 5l-4 6v-1h-1l-1 4l-18 35l-2 6q-1 3 -3 5h-2v2v2l-6 22l-1 5l-2 6l-1 5l-1 6l1 4h-1v2h1l-1 1v1l1 1l1 1l3 4
l1 2v0l15 7h4q5 1 6 0l1 1h1h1l2 -1h8q10 0 13 -3q6 -8 14 -30l3 -12l3 -6q1 -3 3 -5l5 -10q3 -8 4 -9l2 4l2 6l3 6l1 2q-1 -3 1 -5l1 4q0 9 7 37l4 15q15 65 18 130l2 27v10q-1 3 -1 11q0 9 1 16v18q-2 35 -6 65l-5 25q-1 6 -4 13.5t-4 9.5t-13 49q-5 23 -8.5 35t-7.5 21
l-6 13q-2 8 -4 11t3 8q0 2 -3 6.5t-5 6.5q10 8 19 9l6 1q7 0 14 -4q5 -3 19 -17q1 0 4 -4q1 -3 3 -5v0l1 1l3 -5q1 -4 3 -4q0 -1 1 0l6 -10q24 -48 37 -127t13 -166l-1 -35l1 -7q-1 -4 -6 -43q-2 -11 -4.5 -26t-5 -25t-7.5 -24q-16 -53 -31 -84q-8 -16 -18 -29q2 -6 3 -7
l3 -1l2 -1q3 -1 6 -6l1 -2q-1 -1 0 -3h1q5 -5 6 -8l2 -1q0 -1 -1 -1l-1 -2q2 1 7 -4q5 -8 12 -12l1 -1l2 -1l3 -1l1 -2l1 -1l8 -4h2l2 -1l2 1h1l10 -3l5 -2q1 -1 5 -1q3 -1 4 -1.5l3 -1.5q1 0 1 -3l2 -2h3z" />
    <glyph glyph-name="R" unicode="R" horiz-adv-x="404" 
d="M136 677q5 -22 5 -67q-1 -14 -1 -29t2 -29v-38q0 -31 1 -38v-4v-5q0 -3 1 -4v-4l2 -119v-7q7 4 9 4l6 2l2 1h3q1 0 0 1q1 0 3 0.5t2 1.5q2 0 3 1t3 1q55 33 81 73l1 2l2 6l3 5q0 4 3 10q0 2 1.5 4.5t2.5 4.5q2 4 8 25l3 12q2 26 -7 65q-5 27 -8 34q0 2 -1 3q-3 3 -3 7v2
q-1 1 -1 2.5t-1 2.5l-2 3l-1 1q-1 1 0 2l-1 2l-7 14h-1l-2 4q-13 22 -35 38q-10 7 -14 8h-2l-2 2l-2 1q-22 7 -34 7q-8 0 -20 -3q-3 0 -4 -1zM312 5l-4 1v1v1h-1q-1 0 0 1h-1h-1v1v1q-6 8 -8 46l-2 1l1 4v3q-2 2 -2 6q0 2 1 3t1 4q0 6 1 9v7q0 3 1 5v4l-3 23l-2 12l-3 12
q-1 7 -2 14.5t-2 11.5l-1 2q-1 1 -1 3v3v2q0 2 -2 6q0 1 -1 1l1 2v1l-3 12h-1v4q-3 15 -16 36l-2 4q-1 5 -4 7h-1l-1 2v2q-5 5 -14 21l-5 6q-4 3 -4 4l-8 7l-7 7h-1l-1 1v1h-1l-2 2v1l-1 1l-3 4l-1 1q-1 1 0 5q-36 -11 -47 -11q-4 -1 -10 -1q-3 2 -3 3h-1q0 -13 -3 -34
l3 -12l1 -3q2 -14 1 -26q0 -5 -1 -6q-2 -4 -2 -8l1 -2v-13v-17l-2 -8h-3q4 -6 3 -24q-3 -27 -2 -48v-4v-5l1 -2v-4q0 -5 -2 -11q0 -13 1 -20q0 -2 1 -3q0 -3 3 -8l1 -4v-5q0 -10 -4 -21q-3 -11 -4 -12l-3 -3q-1 -1 -9 -1l-3 -2q-2 -2 -3 -2l-32 5q-2 0 -5 4l-4 4v2v1h-1v1v2
l-1 -1q-1 1 0 2v1q-5 18 -5 92l-1 3q-2 2 0 7v7v6l-1 6l2 15q0 22 2 36l1 10v9q1 4 1 13q0 11 -1 17l-1 21l-1 24q-1 13 -1 29q0 18 1 31v28q0 4 -1 6t-1 6t1 7l1 5v8q-1 3 -1 7v3q0 2 1 3v2v30h-1l1 8q1 20 -2 89q0 8 1 15q0 10 -1 11l-1 3q0 3 1 4v3q0 9 2 45v10v11
q1 2 1 9q0 8 1 11q0 4 1 5v1v3l1 -1v2v2l1 1l2 1q0 4 3 5q1 0 1 1v1q4 1 9.5 2t8.5 0l4 -1h1l6 3q32 10 59 10q11 0 39 -4l24 -6q25 -10 53 -31q1 0 3 -2l2 -2l3 -3l3 -2q14 -15 27.5 -39.5t19.5 -43.5q4 -13 4 -50l2 -10l1 -2l1 -9q0 -4 -2 -14l-2 -6l-3 -6l1 -3
q-4 -17 -8 -27l-4 -6h-2v-2q0 -6 -8 -19q-16 -23 -31 -41l-4 -4q-3 -1 -3 -3q0 -1 -2 -3t-4 -3q-5 -5 -24 -17q-8 -6 -8 -7q-4 -1 -9 -6q-3 -1 -5 -3t-2 -3q4 1 7 0q17 -6 30 -14t33 -28q12 -12 13 -14l24 -40v-2l2 -2q0 -2 3 -5q9 -20 17 -63q1 -1 1 -10q0 -12 -1 -21l2 -4
l3 -3q2 -6 2 -13q0 -2 -1 -3l-2 -4l1 -2l1 -6v-9l-2 -4h-2q4 -1 2 -11q-2 -16 -1 -23l1 -2l-1 -2q0 -1 1 -1l1 -2l-1 -2q-1 -1 -1 -3q0 -4 2 -8v-2q0 -1 1 -1l2 -2l2 -1q2 -4 -2 -8l-7 -2l-9 -3q-2 0 -3 -1l-1 -1h-1q-27 -10 -31 -11z" />
    <glyph glyph-name="S" unicode="S" horiz-adv-x="378" 
d="M93 150q4 -10 5 -14q1 -1 1 -5l1 -4h1h1l1 -3q0 -4 1 -4h1l1 -4l1 -3q29 -54 50 -73q17 -12 34 -12q21 0 46 17l3 3q9 13 11.5 17.5t6.5 17.5q7 15 7 18q4 28 5 49q1 6 1 16q0 8 -1 10q-9 72 -57 132q-8 10 -41 39l-6 7q-10 8 -16 16q-3 5 -5 5l-14 15l-8 9q-6 6 -7 9
q-22 32 -32 49h-1l-8 17q-7 32 -7 71q0 35 6.5 66t17.5 50q7 11 36 34l3 3q8 5 13 6q41 17 75 15q21 0 35.5 -8t31.5 -27q15 -17 17 -25l2 -5q1 -3 3 -5h-1h-1l3 -5l2 -6v-4q-1 -1 -1 -4l3 -14l-1 -5q-1 0 0 -3v-3q-1 -3 -7.5 -6.5t-8.5 -1.5q-1 5 -2 5q-2 0 -3 1
q-6 6 -7 10q0 1 -1 0t-1 0q-2 0 -3 4q-1 3 -3 5l-14 15q-10 7 -14 13q-3 4 -8.5 13.5t-13.5 16.5q-6 7 -15 9q-4 1 -11 1q-26 0 -51 -28q-23 -27 -23 -97q0 -31 5 -51q4 -16 10 -25q22 -35 52.5 -74.5t47.5 -54.5q33 -30 56 -67q1 -1 2.5 -3t3.5 -5l6 -9q3 -5 4 -5
q11 -19 17 -45q3 -9 3 -13v-3q0 -6 1 -10l2 -5q2 -26 2 -37l-1 -21q0 -4 -3 -13l-1 -3l-2 4q-1 0 0 -4q1 -8 -3.5 -22t-9.5 -21q-27 -41 -70 -69q-2 -2 -14 -6.5t-19 -6.5q-13 -5 -26 -5q-32 -2 -52 7q-5 1 -19 9q-1 1 -2.5 2t-4.5 2l-12 5q-33 30 -49 73q-10 29 -10 46v16
q0 5 6 5h3l1 10q0 6 1 9v1l16 -4q12 -4 18 -9q4 -3 8 -13z" />
    <glyph glyph-name="T" unicode="T" horiz-adv-x="406" 
d="M380 664q-1 -2 -4 -3.5t-4 -1.5h-2h-1v-1h-2h-1v0q0 -1 -1 0h-2q-12 -3 -64 -2l-1 -1q-2 0 -3 1h-5h-3q-1 -1 -3 -1q-3 0 -4 1h-5q-3 1 -9 1q-7 0 -9 1q-3 0 -5 1h-5q-7 0 -12 -1q2 -22 2 -71l-1 -26q0 -8 1 -14v-13v-35q0 -29 1 -31v-3l-1 -4l2 -8q1 -11 1 -56v-41
l-3 -49q0 -2 2 -10l2 -3q1 -5 1 -22l-2 -6q-1 -1 -1 -6l1 -3v-11v-16l-2 -7h-2q2 -4 2 -14q0 -16 -1 -23q0 -6 -0.5 -14.5t0.5 -20.5v-4v-6q0 -2 1 -3v-4v-6l-1 -6v-8q0 -11 1 -17q0 -3 1 -5q0 -5 3 -11l1 -4q1 -12 -3 -43q-3 -21 -4 -22q-2 -6 -2 -7q-2 -2 -10 -2l-3 -5
l-2 -5q-4 0 -15.5 2.5t-17.5 5.5q-2 1 -6 10l-3 8v3v2h-1q-1 0 -1 2l1 3h-1h-1v3v2q-6 32 -7 123l-1 2q0 5 1 8q0 5 -1 7v6q-1 3 -1 7t1 7t1 7q0 19 2 35l1 8v9q0 14 -1 25l-1 19l-1 20q-1 11 -1 25q0 15 1 26v22v6q-1 1 -1 4q0 4 1 6v4v7v5q-1 1 -1 3t1 3v1q1 10 1 25h-1
h-1l2 7q1 11 0.5 25.5t-0.5 30.5q-1 6 -1 22v13v11l-1 2q0 3 1 5v3q0 18 3 46l1 11v13l1 14h-2h-3q-2 0 -3 1h-2q-4 0 -7 -1h-1q-1 0 -1 1h-2h-13v-1l-3 1q-3 1 -14 1q-15 0 -26 -1h-7h-5l-1 -1l-2 1h-2q-13 0 -22 1q-1 1 -5 1h-5l-11 2q-3 0 -3 1q-1 0 -1 -1l-2 1v0h-1
q-1 0 -1 1t-1 1q-3 2 -3 3v0h-1q-5 8 -1 10q1 0 2 3q0 2 1 3q1 0 0 1q2 2 3 2l3 4q4 7 6 7q14 2 35 2q6 -1 13 -1q4 0 7 1h6h17h17h2h2l2 1h2q10 0 17 1h20h15l27 -2q1 -1 6 1l1 1q4 2 12 0h4q1 -1 3 -1h1h7h8l4 -1v-2q3 3 12 2q18 -2 27 -1h3q2 -1 3 0h2h2h3q1 -1 3 -1
q7 -1 14 0q2 0 3 1h2q2 0 3 1l2 1h4q7 0 18 -3q11 -1 12 -3q1 0 2.5 -0.5t1.5 -6.5l2 -2l3 -2z" />
    <glyph glyph-name="U" unicode="U" horiz-adv-x="455" 
d="M376 686l2 -13v-4v-5q0 -1 1 0v-1v-4v-5h1h1v-5v-5q12 -91 12 -306l2 -7l-2 -40v-14q0 -14 -1 -18l-5 -38q-7 -50 -15 -83q-2 -10 -11 -37q-23 -63 -51 -86.5t-79 -23.5q-35 0 -71 17q-18 11 -31 29l-20 28q-1 2 -2 5t-1 6q-12 27 -20 57v-1h-2l-3 19q-18 132 -21 221
q0 23 1 40v31l-1 7q0 8 1 12l1 8q3 61 9 118q1 3 1 7.5t1 8.5l2 20q1 5 1 13l8 47v2v3v-1l2 1v1v3l1 1q1 0 3 4q0 1 2 1l2 1v0q14 5 17 1l4 -1q4 -1 5 -4h1h2l1 -2l1 -2l5 -6q2 -3 9 -14q2 -6 2 -8l-8 -147q-4 -61 -4 -105q0 -33 1 -54q4 -111 17 -175q3 -16 5 -22t4 -11
q39 -116 74 -127q8 -2 13 -2q19 0 34 23q1 0 5 15l9 29q1 2 4 9q2 2 3 9v5q1 4 11 51q0 4 1 7l2 6v3l3 -5v4q-1 8 3 51q8 60 6 126v12v14v9q-1 3 -1 11q0 9 1 16v16q0 23 -2 65q-2 10 -2 25l-3 15l-2 10q-1 12 -1 41q0 34 1 54q1 37 3 43l3 13q0 4 7 3h2l3 8l3 7l11 -3
q13 -3 21 -11q5 -5 8 -16z" />
    <glyph glyph-name="V" unicode="V" 
d="M218 12q-5 6 -6 6l-1 2v3l-1 -1q-1 0 -1 2t-1 3l-1 -1v3l-1 2q-11 23 -36 112l-2 2q-1 1 -1 3t-1 4l-2 7l-1 6q-3 8 -4 13q-1 3 -1 8q-4 13 -7 34q-1 2 -1 9l-2 8q-2 8 -14 44l-13 45l-7 26l-6 24q0 3 -1 5q-3 6 -3 11l-3 11q-1 1 -1 2.5t-1 2.5l-1 3v4v2l-6 25h-1l-1 8
q-3 17 -21 81l-7 26l-2 2v5v3q-5 20 -9 49q-5 20 -5 26q-4 20 -4 26l-1 8v3l-1 2q0 1 1 1v2q-1 1 -1 3l1 1l1 2l2 8l1 2v1q1 2 7 4t9 2q2 0 5 -1.5t6 -3.5q0 -1 1 0h2l2 -2l1 -2q3 -3 9 -6q14 -7 15 -14q5 -14 12 -37t10 -41l6 -29l4 -14l4 -14l10 -33l9 -35q0 -3 1 -4
q0 -2 2 -8l2 -3l16 -58l11 -43q1 -1 10 -51q0 -3 5 -8l2 -3q3 -6 7 -22v-6q-1 -3 0 -7l2 -2l3 -12q0 3 4 -15v-8h-3q7 -5 8 -22q4 -24 12 -48q1 0 2 -6q1 3 1 7q5 19 9.5 38.5t6.5 26.5q0 5 2 7v5q0 2 1 3q4 25 13 59q10 39 10 42l15 50q1 1 1 5v6v3q0 7 5 24l3 6l2 6v3
l3 13l4 16l3 7h2v4q0 8 4 20q9 31 14 53l3 10v4q0 6 3 11l2 6q5 14 6 27l1 5q1 2 1 5v7q-1 4 0 5q2 13 13 43q7 20 10 23q1 1 2 4t3 3.5t6 -0.5l3 4l4 5l8 -4q9 -5 15 -11q2 -2 2 -11v-9q0 -2 -1 -3t-1 -3h1q2 -1 0 -3l-1 -2q0 -1 1 -1v-2q-1 -1 -1 -3q-4 -31 -28 -130v-3
q-1 -4 -2 -8.5t-2 -6.5q0 -4 -1 -7l-1 -6l-3 -8l-2 -8l-6 -19l-5 -17l-6 -18l-5 -27l-5 -21q-1 -8 -3.5 -21.5t-5.5 -25.5q-4 -12 -7.5 -26t-5.5 -24q-1 -2 -1 -6q0 -6 -2 -10q-3 -7 -3 -11l-1 -6q-1 -1 -1 -3t-1 -3l-1 -1l-7 -25h1l-3 -7l-18 -77l-3 -12l-3 -11v-3
q0 -3 -1 -4t-1 -3l-13 -42q-1 -1 -4 -12v-3q2 -20 1 -21v-8q0 -2 -9 -4l-1 -5l-2 -5q-6 0 -9 -1q-1 -3 -3 -3l-2 -1v-1l-4 -1q-9 0 -9 3l-3 3h-4q-3 2 -7 8z" />
    <glyph glyph-name="W" unicode="W" horiz-adv-x="697" 
d="M655 695q1 -7 1 -9v-4l-1 -2h1h1v-3q-1 -1 -1 -3h1l-1 -2v-3q0 -26 -15 -124l1 -3q-3 -12 -3 -15l-1 -12l-2 -7l-2 -7q-1 -3 -2 -7.5t-2 -10.5l-4 -16l-2 -8l-2 -9q-3 -11 -4.5 -24t-1.5 -20q-1 -7 -3 -20t-3 -24l-4 -25q-3 -10 -3.5 -15.5t-1.5 -7.5q-2 -3 0 -5
q0 -7 -2 -11q-3 -6 -3 -10v-6v-3l-1 -2l-2 -3l-4 -24v-1h1l-3 -7q-6 -26 -12 -80q-4 -16 -4 -25l1 -3q0 -3 -1 -4t-1 -3q-1 -12 -8 -49q0 -5 -4 -25q0 -5 -1.5 -11.5t-2.5 -11.5q-2 -6 -3 -7v-2v-3h-1v1v-3v-2q-3 0 -3 -2q-2 -2 -2 -3l-3 -3q-1 0 -1 -1v-1q-1 -1 -9 -1
q-7 0 -8 1l-4 3q-3 1 -5 5h-1h-1q-1 0 -1.5 2t-0.5 3q-10 10 -13 15t-3 8v4q-8 17 -24 73l-2 2q0 4 -1 7l-3 7l-1 6q-3 8 -4 15q-1 2 -1 4t-1 3l-4 20l-5 18q0 1 -4 21q-11 43 -15 53l-15 55q-6 24 -8 34l-7 28l-4 12l-2 12q-1 6 -2 9.5t-2 5.5l-1 3v4l-1 2l-6 30h-1l-1 8
q-4 24 -18 75q-7 -34 -50 -199v-7l-5 -18q-4 -11 -9 -35q-5 -20 -9 -34l-6 -18q-4 -18 -12 -43q-6 -22 -10 -38q-3 -7 -6.5 -17.5t-4.5 -18.5l-18 -78q-1 -7 -2.5 -16t-2.5 -14t-5.5 -10.5t-10.5 -7.5q-6 -1 -16 -1q-14 0 -24 4.5t-13 10.5q-4 6 -7 18l-2 6q-3 12 -3 15
l-1 5l-2 11l-4 14q-2 2 0 5q0 3 -1 4l-4 27q-3 10 -3.5 15.5t-1.5 7.5h-1v0l-2 16l-37 206l-6 36l-5 32l-3 7q-1 4 -1 12q0 7 -1 9l-3 23q-3 20 -14 99q-1 7 -3.5 23.5t-4.5 33.5q-1 6 -2.5 19t-3.5 29q-1 10 0 14l-1 4l-1 4h1h1l-1 4q-1 3 0 4l1 2v1l1 6v3l2 2v2v1
q2 2 9 4.5t8 0.5q2 0 5.5 -2.5t5.5 -5.5h1q2 2 2 0l2 -3l2 -3q1 -2 9 -10q12 -13 16 -26q5 -22 14.5 -74.5t17.5 -104.5q1 -7 2 -15t3 -17q3 -27 6 -42q8 -52 14 -75l31 -174q0 -4 1 -7q1 -4 1 -9l6 20q0 1 2 7l2 7l1 2q0 -5 2 -5q1 0 1 4q-1 14 12 54q19 64 33 124l3 13
l3 12l2 9q1 6 7 26l4 14q9 31 15 58q0 1 2 11l4 24v10q3 17 22 74q6 19 10 27l4 7q2 2 9 0l3 3l3 3l9 -3l7 -2h1q3 0 4 -1v0l2 1v-1h1q13 -4 13 -6q4 -6 12 -47q0 -4 4 -22q0 -2 6 -25l8 -33l9 -38q2 -6 2 -9l3 -8l17 -65l5 -22q5 -19 22 -96l2 -4l2 -7l2 -3q4 -8 7 -27
l2 -7q-2 -3 0 -8l2 -3q2 -12 8 -31l1 -9h-2q3 -3 8 -24q1 -7 5 -19q0 14 2 24q11 53 12 70l1 4v3v5v3l10 57l4 24q2 13 4.5 25.5t9.5 39.5v5v5l-1 3q0 9 3 22q0 4 2 6t2 6v2q0 14 5 27l2 7q1 -1 3 -1q-1 2 -1 8q0 9 2 15q8 23 9 48l1 6l1 4v4l2 10l2 6q3 12 3 25q0 3 1 5v5
q0 4 -1 7l-1 4q0 13 10 43q3 9 5 14.5t3 7.5t2 5t3.5 3.5t7.5 -0.5l3 4l3 5q9 -2 21 -7q6 -4 9 -7t4 -10z" />
    <glyph glyph-name="X" unicode="X" horiz-adv-x="437" 
d="M344 14l-5 6v2l-2 2v0l-2 2v2h-1l-1 2l-1 2q-14 25 -49 105l-2 2l-2 7q-4 9 -6 13q-3 3 -5 12q-2 6 -3 7q-1 8 -6 18l-6 15l-3 9l-3 8q-4 12 -13 29q-6 10 -7 13q0 -1 -7 16l-1 -2q-1 -1 -1 -4q-1 -6 -4 -11l-3 -4l-4 -12v-2l-2 -3l-1 -1l-10 -24h1l-4 -7q-7 -15 -30 -75
q-3 -8 -5 -12q-4 -8 -4 -11v-3l-3 -4l-1 -2q-7 -16 -21 -43q-1 -6 -10 -23l-5 -10l-7 -12l-4 -7l-2 -2v-2h-1q-1 0 -1 -2q-1 -3 -3 -3l-1 -1l-3 -3q-2 -2 -3 -2l-2 -1v-1h-2q-4 0 -8 1.5t-4 2.5t-2 3q-3 5 -3 7h-1l-1 1v3v3l-2 9q-3 5 -3.5 9t0.5 9q11 36 28 73l11 24
q8 20 10 26q5 12 12.5 31t12.5 33l3 7q0 5 2 7q9 24 20 53t17 43l10 23l-2 4q-4 6 -5 11q-1 6 -4 11l-3 6l-2 2q-1 1 -1 4v2q1 -2 -11 26h-1l-3 8q-9 26 -37 85l-6 15l-6 12l-2 3q-1 1 -1 5q-1 3 -2 3l-20 55l-6 14l-6 15l-10 30l-3 8q0 2 -1 3l-1 3q0 1 1 1v0l-1 2l-1 4
q-2 0 0 2v1q-1 10 0 11v1l-1 1q1 2 6 5.5t6 2.5l4 -2q6 -2 7 -4q0 -1 1 0h1l5 -5l8 -6q13 -8 17 -15q8 -16 19 -40t20 -47q10 -25 12 -32q4 -7 8 -15l6 -14l32 -72l2 -4l2 -4l2 -4l2 -4l5 -10q1 1 4 11l6 14l4 7l2 -1v2q0 6 8 22l21 52q0 3 1.5 6t2.5 4t1 4q0 5 5 12l3 6
q4 9 10 27l2 6q2 4 2 12q0 5 1 6q3 13 21 46l14 24q1 1 3 4t4 3.5t6 -0.5q1 0 5 4l4 5l17 -13q4 -4 5 -7q3 -1 1 -12l-2 -11q0 -2 -1 -3l-1 -3q0 -1 1 -1v0l-1 -2q-1 -3 -2 -3q0 -1 1 -1l-1 -2l-1 -4q-7 -28 -48 -135v-3q-3 -10 -7 -16q0 -1 -4 -13q-1 -4 -3.5 -8t-3.5 -7
q-1 -2 -8 -18l-8 -17l-4 -8l-4 -9l-16 -46l-5 -13l5 -12q1 -2 6 -14t13 -36q1 -3 7 -9l1 -2l11 -22l1 -6l1 -6l2 -2q3 -6 11 -26l2 -8h-2q5 -5 11 -21q6 -19 19 -46l2 -4q1 -2 1 -5q3 -3 4 -6l2 -6l2 -6q6 -14 10 -21l2 -4q1 -1 1 -2.5t1 -2.5l4 -4l3 -4q5 -11 12 -37l5 -20
v-8q0 -2 -6 -4v-5l-1 -5l-14 -2q-13 -3 -14 0q-3 0 -8 6z" />
    <glyph glyph-name="Y" unicode="Y" horiz-adv-x="419" 
d="M379 704l-1 -5v-1l-1 -1q0 -1 1 -1v0v-1l-1 -1l-1 -1v-1q-1 -10 -24 -63v-2l-1 -4l-2 -4q-1 -1 -1 -3q-1 -6 -3 -8l-3 -5q-1 -2 -2 -4.5t-2 -5.5q-3 -7 -5 -9l-2 -5l-2 -5l-3 -8l-4 -10l-7 -21q-2 -7 -11 -30l-5 -14q-2 -2 -2 -6q-3 -3 -3 -5l-2 -7l-1 -2l-1 -1v-1
q-4 -7 -6 -14h1l-2 -4q-4 -6 -16 -40l-3 -6l-2 -5v-2q0 -1 -1 -1l-1 -2l-8 -16q1 -4 1 -18l-1 -18q0 -6 1 -10v-9q2 -16 2 -45v-2v-3l1 -2q1 -1 1 -3q1 -5 1 -20q0 -16 1 -25v-19l-3 -31l2 -4l2 -3q2 -8 1 -14q0 -3 -1 -4q-2 -2 -2 -4l2 -1v-7q0 -7 -1 -10l-1 -4h-3
q4 -3 3 -13q-2 -12 -2 -17l1 -12v-3v-3l1 -2v-2v-4q-1 -1 -1 -3v-4q0 -7 1 -11v-2q0 -3 3 -6l2 -3q1 -9 -8 -36l-3 -4q0 -1 -9 -1l-3 -3l-2 -2q-4 0 -15 1t-18 4q-2 0 -5 5l-4 5v1v1h-1v1v2h-1q-2 0 0 2v1q-6 17 -7 69l-1 1v5v4v4q-1 1 -1 4q0 6 2 8q0 7 1 11v10l1 5
q1 2 1 5q0 9 -1 16l-1 11q-1 4 -2 12.5t-1 15.5v16v15v3q-1 1 -1 3v3l1 3v4v4l-1 2l1 2v1v16h-1l1 5q1 9 -2 52v10v7l-2 1q0 3 1 4l1 2q0 18 1 30q-5 6 -25 41l-1 1l-2 4l-2 3l-4 6l-2 8q-4 7 -7 18q-3 9 -3 10q-1 3 -7 13l-6 10q-2 3 -6 10t-7 14q-4 7 -7 14.5l-5 12.5
l-2 3q-3 3 -3 6v2l-2 4l-2 3l-1 1v2v1q-3 10 -6 14l-1 -1v5q-9 21 -20 42q-1 1 -1 3t-1 4q-1 3 -3 5l-2 1v3v1q-2 4 -8 24l-2 6l-2 6l-1 5l-2 6v4l-1 1v1v0l1 1l-1 1v1l1 1l1 1q1 3 3 5v0v1q2 2 7.5 5.5t6.5 2.5l4 1q4 1 5 0l2 1h1l1 -1h2l8 1q10 0 13 -3q4 -6 9.5 -15.5
t9.5 -19.5l5 -14l4 -7q2 -6 3 -7l8 -17l9 -18q0 -1 0.5 -2.5t1.5 -1.5l1 -2l1 -2q6 -8 14.5 -27t11.5 -27q1 -1 10 -28q0 -1 3 -3l3 -2q4 -4 7 -12v-3q-2 -2 0 -4l2 -1l3 -6t3 -8q1 -1 1 -3v-2l-3 -1q5 -2 8 -10q5 -16 11 -24q0 -1 0.5 -2.5t1.5 -1.5q0 -1 1 -1l1 -2
q2 -4 2 -6l2 -2l6 -5l13 34v1l2 3v2l1 2q3 11 12 33l9 23l13 29q0 2 1 3v3v2q4 12 5 14l2 3l2 3v2q1 2 2.5 6t3.5 10l3 4h1v1q0 3 1.5 6t2.5 6q7 12 12 28l2 3q0 2 1 3v2q0 1 3 5l2 3q4 11 5 14v2l2 3v3v3q2 4 11 19q6 9 7 9l2.5 2.5t5.5 -0.5l2 2l2 1l5 -4l7 -7q1 0 1 -4z
" />
    <glyph glyph-name="Z" unicode="Z" horiz-adv-x="387" 
d="M40 27v10l1 2l1 2v0q-1 0 -1 1l1 2l1 2l-1 1q-2 0 0 2q1 1 1 3q4 23 41 120v3l3 8l3 7q0 3 1.5 6.5t2.5 6.5l4 7l3 7l15 33l4 9l4 8l16 45q2 7 6.5 20.5t9.5 24.5q5 16 20 49q1 1 1 2.5t1 2.5q0 3 1.5 5.5t2.5 4.5q3 5 4 11l2 6l1 2q0 1 2 3l1 2l10 24h-1v1l4 6
q6 12 30 79q3 5 6 12t4 12v3l3 4q1 1 1 3l21 45l5 11q3 8 5.5 12.5t5.5 10.5h-6h-9l-1 -1q-2 0 -3 1h-3h-2q-1 -1 -3 -1t-3 1h-3q-2 1 -7 1t-6 1q-2 0 -3 1h-4h-5q-2 -1 -6 -1h-6h-7q-4 -1 -9 -1q-6 0 -10 1h-9h-2l-1 -1l-2 1h-2h-5q0 -1 -1 -1l-1 1h-10h-3q-2 1 -10 1
q-12 0 -20 -1l-6 1h-5l-1 -1h-1l-2 1l-20 2h-5q-4 0 -5 1h-5q-8 0 -10 2h-1h-1v1h-2h-1l-1 1q-3 2 -3 3v0h-2v5q-1 4 0 5l1 2l2 3q1 0 1 1q-1 1 0 1h1l1 1l3 4q4 6 8 6l21 2h12q5 -1 12 -1h6h5h14h12h2h1l2 1h1q8 0 13 1h13q5 -2 11 0l18 -3q1 0 3 1t2 2h9l2 -1l2 -1l1 1h5
h6l3 -1v-2q2 2 8 1q7 -1 20 -1h3h2l1 1h2h3l2 -1q5 -2 10 0h3q2 0 4 2h2h4l16 -2q8 -1 10 -3q1 0 2.5 -0.5t1.5 -6.5l2 -2l3 -2l-1 -7q-1 -4 -2 -6.5t-2 -4.5q6 -17 5 -22q-4 -15 -11.5 -35t-16.5 -40l-12 -27l-5 -14l-5 -13l-12 -32l-13 -34l-2 -4q-2 -6 -2 -7l-1 -4
l-22 -57q-3 -6 -8 -22q-10 -26 -31 -68v-4q-1 -3 -1 -7v-3q-1 -6 -8 -22q0 -1 -4 -5q-3 -3 -4 -6l1 -3q-2 -4 -11 -27l-5 -7l-2 1v-2q0 -7 -6 -21q-13 -25 -20 -48q-1 -1 -1 -2.5t-1 -2.5l-2 -5l-2 -7l-3 -6l-3 -6q-6 -16 -8 -25q-1 -1 -2 -4t-1 -6v-6v-5q-3 -15 -13 -30h4
h14h13h1h2h1l2 1h23q16 0 18 1l20 -2l4 1l2 1q2 1 9 1q1 -1 3 -1l2 -1l2 1h5h6l3 -1v-1q4 2 10 1l11 -1l11 1h3h2l1 1h2h3l2 -1q8 0 12 1h1q2 0 6 2l2 1h4q9 0 15 -1l11 -2q2 0 3.5 -1.5t1.5 -4.5l2 -2l2 -1q0 -13 -3 -18l-4 -3l-4 -2q-1 -1 -2 0h-1v0q0 -1 -1 -1h-1v-1h-1
h-2q-14 -4 -55 -5l-2 -1h-3h-3h-3q-1 -1 -3 -1t-3 1h-3q-5 0 -8 1h-8h-3h-4h-11l-8 -1h-8q-5 -1 -11 -1h-11h-10h-2l-2 -1h-3l-1 1h-5h-2v0h-2q-4 1 -10 1v-1l-3 1h-32h-5h-5q-1 0 -1 -1l-2 1h-1q-3 0 -19 2l-4 -2q-4 -4 -4 -3l-8 5l-7 4h-2v1h-1h-1q0 1 -1 1q-2 2 -2 3h-1
q-2 2 -3 5q-3 2 -2 11z" />
    <glyph glyph-name="bracketleft" unicode="[" horiz-adv-x="271" 
d="M242 -116l-8 -2h-5h-5v-1h-5h-5q-1 0 0 -1h-11q-50 -3 -86.5 18.5t-41.5 55.5l-2 3v11q-1 4 -1 10l-1 9q-1 4 -1 10v13v11l1 64q1 3 0.5 7.5t0.5 10.5v18q0 27 -1 49v29q0 60 -1 81q0 11 -0.5 21.5t0.5 19.5q0 49 2 80q1 15 1 35v12v11q0 8 1 13l1 9v15v12v6q0 4 1 6
q1 1 1 4l2 52h-1l2 14q0 16 7 129q0 8 1 15l1 12l-1 3q0 3 1 4l1 2q2 2 2 10q0 5 2 7l3 6l6 6q1 1 4 1q13 6 50 6q54 0 70 -4q1 -1 5 -1h4v-1h5h4q0 -1 1 -1l1 -1l8 -2q0 -1 1 -1q1 -1 1 -4t-1 -4l-2 -2q-1 -1 -4 -1v-1v-1h-3h-3q-40 -5 -45 -5h-37q-12 0 -12 -1t5 -1
q4 0 4 -7t-1.5 -14t-1.5 -16v-15l-5 -107v-7q-1 -3 -1 -8t1 -8v-6l-1 -37q0 -14 -2 -74q-3 -79 -3 -108t-3 -71l-2 -43l2 -23l1 -5q2 -25 1 -49q0 -10 -1 -13q-2 -6 -2 -13l2 -6v-25v-29q0 -8 -1 -14q-2 5 -3 4t0 -3q4 -8 4 -40q-1 -35 4 -69v-5q0 -4 2 -8q1 -1 1 -4v-5v-5
q0 -5 2 -7v-1l-6 3q-5 0 -6 -1l-3 -2l-1 -2q21 -10 66 -10q13 0 20 1h14h9h12q3 -2 3 -4q0 -1 3 -1h3q2 0 3 -1h2q-1 -1 -1 -2.5t-1 -2.5q-3 -8 -7 -9q-5 -4 -20 -4z" />
    <glyph glyph-name="backslash" unicode="\" horiz-adv-x="432" 
d="M331 -3l-6 6q-1 0 -1 2l-2 3h-1l-1 2l-1 2h-1l-1 2q-1 1 -1 3q-17 24 -59 118l-3 2q-1 1 -3 7q-4 10 -6 13q-3 4 -6 14l-3 8l-7 18l-7 17l-6 18l-22 44l-6 14l-15 30l-21 50q-1 1 -1 2.5t-1 2.5q-4 6 -5 11l-1 4q-1 6 -5 12q-3 5 -3 6v2q-7 18 -10 25h-1l-2 8l-32 81
l-5.5 16.5t-3.5 9.5l-2 2q-1 1 -1 5v3q-3 9 -14 50l-7 27q-5 22 -6 26q-1 6 0 9l-1 2q-1 1 -1 3h1h1q0 2 -1 3t-1 3l1 1l1 2l2 9v1v1q2 2 9 5t8 2q0 -1 4 -2q6 -2 7 -3q0 -1 1 0h2l2 -2l2 -2q2 -2 9 -5q14 -9 15 -14q5 -11 12.5 -32.5t14.5 -43.5l8 -30l6 -14l5 -13l26 -67
q1 -1 2 -3.5t1 -3.5l3 -4l1 -4q7 -14 21 -47t21 -51q1 -1 19 -51q0 -2 6 -8l2 -3q7 -9 11 -21l2 -7q-1 -2 1 -7l2 -2l6 -12l6 -15l2 -8l-2 -1q5 -3 12 -21q7 -23 21 -50l2 -4q1 -4 5 -8q2 -2 4 -11l2 -6q4 -12 12 -25q3 -3 5 -9l5 -4q3 -3 3 -4q6 -9 16 -43l6 -24
q-1 -4 0 -9q2 -2 -7 -5l-1 -6v-6l-13 -3q-12 -3 -21 -1q-5 2 -9 8z" />
    <glyph glyph-name="bracketright" unicode="]" horiz-adv-x="271" 
d="M2 -103q-1 1 -1 2.5t-1 2.5h2q1 1 3 1h3q3 0 3 1q0 2 3 4h12h9h14q7 -1 20 -1q45 0 66 10l-1 2l-3 2q-1 1 -6 1l-6 -3v1q2 2 2 7v5v5q0 3 1 4q2 4 2 8v5q5 34 4 69q0 32 4 40q1 2 0 3t-3 -4q-1 6 -1 14v29v25l2 6q0 7 -2 13q-1 3 -1 13q-1 24 1 49l1 5l2 23l-2 43
q0 11 -2 33l-1 38q0 29 -3 108q-2 60 -2 74l-1 37v6q1 3 1 8t-1 8v7l-5 107v15q0 8 -2 24q-1 13 3 13q5 0 5 1q1 1 -12 1h-37q-5 0 -45 5h-3h-3v1v1q-3 0 -4 1l-2 2q-1 1 -1 4t1 4q1 0 1 1l8 2l1 1q1 0 1 1h4h5v1h4q4 0 5 1q16 4 70 4q37 0 50 -6q3 0 4 -1l6 -6l3 -6
q2 -2 2 -7q0 -8 2 -10l1 -2q1 -1 1 -4l-1 -3l1 -12q1 -7 1 -15q7 -113 7 -129l2 -14h-1l2 -52q0 -3 1 -4q1 -2 1 -6v-6v-12v-15l1 -9q1 -5 1 -13v-11v-12q0 -20 1 -35q2 -31 2 -80q1 -10 0.5 -22.5t-0.5 -24.5v-56q0 -26 -1 -48t-1 -49v-18q1 -8 1 -18l1 -64v-11v-13
q0 -6 -1 -10l-1 -9q0 -6 -1 -10v-11l-2 -3q-5 -34 -41.5 -55.5t-86.5 -18.5h-11q1 1 0 1h-5h-5v1h-5h-5l-8 2q-15 0 -20 4q-4 1 -7 9z" />
    <glyph glyph-name="asciicircum" unicode="^" horiz-adv-x="327" 
d="M229 435q-3 4 -4 6q-1 0 -1 0.5v0.5l-1 2v1v-1l-2 3v1h-1l-1 1l-1 3q-16 29 -36 105l-2 3q-1 2 -1 8q-3 12 -5 15q-3 10 -4 16q-1 3 -1 8l-5 22l-4 16q-1 -2 -1 -5l-2 -9v0l-2 -6q-1 -3 -14 -43l-7 -25l-7 -22l1 -2q-1 -1 -1 -2t-1 -1l-1 -3l-14 -41l-3 -10l-3 -10
q0 -1 -1 -3.5t-1 -5.5q-2 -5 -3 -9.5t-2 -5.5v-3l-1 -1h-1v-1v-3l-3 -1l-1 -4l-2 -1l-1 -1v-1q-1 -1 -6 -1q-4 0 -6 2l-3 2l-3 4v1q-1 -1 -1 0q-1 0 -1.5 1.5t-0.5 2.5l-3 6q-6 10 -5 15q3 31 18 70l8 22l6 24l17 57q1 1 1 4v1t1 1q0 3 1 4v2l4 28q3 25 7 36q3 13 12 18.5
t23 8.5q3 1 8 1q7 0 12 -3t7 -6q4 -6 4 -8l2 -2l3 -4l1 -1l6 -17q1 -3 1 -7q-1 -1 1 -5l1 -3l4 -11q1 -3 2 -7t1 -9l2 -9q-2 2 -3 2l1 -2q3 -3 8 -25q7 -35 14 -56q0 -3 1 -5l2 -6v-1t1 -1q1 -2 1 -5q0 -4 1 -7l1 -5l6 -22l2 -3q0 -4 1 -5l3 -3q1 -2 2 -2q5 -18 4 -15l2 -12
l6 -21q0 -1 1 -4.5t0 -5.5t-4 -2h-2q-1 0 0 -3v-3l-1 -5q-2 1 -12 1q-7 0 -13 2q-3 1 -6 5z" />
    <glyph glyph-name="underscore" unicode="_" horiz-adv-x="593" 
d="M557 -2h-5h-2h-2h-1h-3v-1l-1 1q-1 -1 -3 -1l-93 1h-2q-3 0 -5 1h-6l-2 0.5t-3 -0.5l-5 -1q-3 0 -5 1h-6q-10 1 -28 1l-6 1h-7l-6 -0.5t-28 -0.5h-10q-12 0 -17.5 -0.5t-7.5 -0.5q-11 0 -19 1q-9 -1 -19 -1h-4h-4l-5 -1h-2l-5 1q-1 -1 -4 -1h-3l-2 1h-1l-20 -1l-5 1
q-5 0 -18.5 -0.5t-42.5 -0.5l-10 -1h-10h-2h-3h-2l-36 2l-2.5 -0.5t-6.5 0.5h-10q-13 0 -19 1q-5 0 -6 1h-2h-2h-2q-1 0 -1 1h-1l-1 1l-6 2l-1 -1h-1q-1 1 -1.5 3.5t0.5 4.5l3 3l3 2q0 1 1 1h1l2 1l17 7q10 2 37 2l23 -1h20l11 1h10l26 1q9 -1 16.5 -0.5t9.5 0.5h3h3h3h3
q5 0 24 1t52 1q2 0 9.5 -0.5t28.5 -0.5h4h4l2 1q4 2 9 2l8 -1q4 0 5 -1t5 -1l2 1q1 1 9 1q5 -1 12 -1l5 -1v-1q4 2 8 2l10 -1q12 -1 38 -1h4h5q2 0 2 1h3l10 -2q6 -1 10.5 -0.5t8.5 0.5h4h4q3 0 5 1h3q2 1 7 1t11.5 -1t13.5 -2q16 -2 17 -3l6 -2q1 0 1 -4l4 -2h2l1 -1l-2 -4
q-1 -5 -5 -11q1 1 -9 -2z" />
    <glyph glyph-name="a" unicode="a" horiz-adv-x="387" 
d="M298 -4l-5 2l-2 2v1l-1 -1l-1 2v1v-1h-1l-1 2v0q-12 14 -19 40q-15 -20 -28 -27q-7 -6 -18 -9q-25 -7 -42 -8h-6q-7 0 -17 2q-31 7 -48.5 15t-32.5 28.5t-28 61.5q-12 38 -17 101v10q-1 4 -1 11t1 12l1 7l2 30q0 3 1 5l1 4q6 30 11 46h-1h-1l6 13q35 78 68 104q7 6 30 15
l3 2q-1 0 9 2t28 2q41 0 66 -25q6 -5 22 -26l10 -14h6q7 0 8 -1q2 0 4.5 -1.5t4.5 -2.5h1l3 -1q0 -1 1 -1l6 -3l8 -4l2 -4l1 -10q0 -13 -3 -25l-2 -16q-2 -2 0 -7v-8q-1 -7 -2 -19.5t0 -21.5v-2q-1 -1 -1 -3t1 -3v-2q1 -6 1 -32q-1 -16 -1 -33v-6q0 -11 -1 -17q-1 -4 -1 -9
l2 -5l2 -4q2 -6 2 -14l-2 -4q-1 -1 -1 -2v-1l2 -2v-7q0 -7 1 -10l-1 -5h-3q4 -3 4 -13v-8q0 -11 3 -20v-3q0 -2 1 -3l1 -2l0.5 -1t0.5 -3l-1 -4q2 -8 4 -12l2 -2q0 -3 3 -4l2 -1q3 -5 2 -18q0 -7 -1 -8t-1 -3l-8 -5l-2 -3l-1 -3q-3 0 -8 -3q-11 -6 -21 -7q-2 -2 -7 2z
M258 329l1 8q1 3 1 7l-1 1q0 2 1 3v2l3 13q-18 13 -31 26q-24 35 -33 45.5t-19 10.5q-9 0 -19 -7q-5 -4 -15 -20q-20 -37 -31 -78l-1 -5q-2 -4 -2 -6l-1 -11q-5 -40 -5 -87q0 -49 7 -81l7 -25l6 -23l9 -35v-4q2 -4 17 -15l5 -5q2 -4 5 -6l2 -1q11 -7 21 -9h5v-1l13 10
q13 20 19 41q1 2 2.5 5.5t1.5 5.5q1 1 1 4q0 4 1 6q1 1 3 8t3 8q6 26 8 39q0 4 1 6v6v5q2 5 0 11l-1 8q2 29 8 63l3 19l2 20l2 16q1 6 1 22z" />
    <glyph glyph-name="b" unicode="b" horiz-adv-x="381" 
d="M62 41q-3 7 -4 7v3v2h-1v2v3h-1v3v2q-5 28 -5 116l-1 3q0 4 1 7v7v6q-1 2 -1 6q0 7 2 13q0 10 1 17t1 16l1 8q1 3 1 8v24l-1 17v19q-1 10 -1 23t1 24v22v5q-1 1 -1 4q0 4 1 6l1 4v6q-1 2 -1 5v3v3l1 1q1 9 1 24h-1h-1l2 7q1 7 0.5 14.5t-0.5 14.5q-1 13 -1 47l1 14
q0 9 -1 10l-1 3q0 3 1 4v3l2 47q1 2 1 12v13l2 26q0 6 1 7v3v2h1v3v3l2 2q1 1 1 5q0 1 2 3q1 0 1 1t1 1q1 2 8.5 3.5t8.5 -0.5q0 -1 4 -2q2 -1 4 -6l2 1h1l3 -6q11 -11 16 -15q3 -4 3 -8q3 -17 3 -80v-27v-13v-14v-35q0 -27 1 -30v-3v-4q0 -3 1 -4v-3v-37q11 7 26 12
q23 10 65 8q22 0 30 -4q35 -10 63 -43q2 -2 3 -5l2 -2l3 -4l2 -4q11 -24 17 -60t4 -62q-2 -19 -12 -63q-1 -1 -1 -6v-8v-3q-1 -13 -9 -28q-1 -4 -4 -7q-2 -2 -4 -7v-4l-15 -31l-6 -7l-2 1q-2 -12 -14 -24q-17 -21 -40 -40q-3 -3 -6 -4l-3 -2q-3 -3 -4 -3l-3 -2l-11 -5
q-15 -7 -24 -9q-6 -2 -7 -2q-1 -1 -3 -1l-10 -3q-14 -2 -21 -2q-16 0 -30 4t-19 8l-2 2l-6 3q-2 2 1 7q0 2 -3 3v0l-6 2q-8 3 -10 4q-2 3 -4 10zM125 365l-4 -46q0 -3 1 -4q1 -2 1 -6l1 -2q1 -2 1 -9t-1 -12q0 -5 -1 -6l-1 -6l1 -2v-11v-14l-2 -7h-3q3 -3 3 -11l-1 -22
q-2 -22 -1 -34v-5l-1 -4q0 -2 1 -3t1 -4l-2 -12l-1 -12l1 -12q1 -1 1 -4q0 -4 3 -10l1 -5q0 -20 -3 -40l-5 -21l-1 -2h1l2 -1l2 -1l2 -1l2 -1v1l1 -1l2 -1q4 -1 11 -1q19 0 38.5 8.5t34.5 23.5v2q6 6 7 11q3 3 4 6q3 7 6 10l4 6q9 16 15 32l8 17q13 41 16 98q0 36 -1 51
q0 3 -1 5q-1 1 -1 4v5v4l-4 13l1 2v2l-6 19l-1 -1v6q-10 29 -30 46q-6 5 -18 9h-2q-3 0 -4 1h-3q-22 1 -39 -8q-7 -3 -26 -26l-10 -10v-4z" />
    <glyph glyph-name="c" unicode="c" horiz-adv-x="302" 
d="M269 85q0 -6 -1 -9l-2 -6q0 -2 -1 -3q-2 -2 -2 -3q1 0 1 -1l-1 -2l-2 -3v-1h1l-4 -6q-18 -25 -51.5 -41.5t-70.5 -16.5l-13 1l-5 2q-11 5 -22 14t-17 18q-6 7 -11 21q-14 29 -18 42q-2 6 -3.5 12t-1.5 9q-16 61 -16 91l4 57q0 4 1 7q0 3 2 15l1 5l2 22q0 3 1 4t1 3
q3 9 4.5 18t3.5 17l-1 1l4 10q29 74 54 97q4 6 28 15l3 2q-1 0 9 2q19 3 36 3q45 0 65 -18q9 -6 17 -22t7 -22l1 -4l1 -4h-1h-1l1 -3q1 -3 -1 -5l-1 -2q-1 -2 -1 -5t-2 -3l-1 -2v-1q-14 -4 -18 -3q0 2 -4 3t-5 4l-0.5 0.5t-1.5 -0.5h-1l-1 2q-2 2 -2 3q-4 2 -8 6
q-14 7 -14 12q-1 1 -2 7q-1 10 -7 17l-10 6q-11 7 -21 7q-11 0 -20 -9q-2 -1 -6 -8.5t-6 -11.5q-15 -39 -21 -69q-1 -2 -1.5 -4.5t-0.5 -4.5q-1 -2 -1 -6v-3q-11 -93 -11 -122q-2 -22 -2 -27l-1 -8l4 -8q1 -1 1 -3q3 -9 4 -21q0 -4 -1 -5q-1 -2 1 -7l1 -3l8 -26l1 -8h-3
q4 -3 12 -23q10 -26 24 -49q3 -5 5 -6t3 -2q4 -4 7 -3q9 2 15 9q6 6 7 11l1 4l16 28q5 8 9 16l4 8l2 4l5 5q1 1 8 0q1 -1 4 3l3 4l10 -5l7 -3.5t8 -8.5q2 -6 2 -7z" />
    <glyph glyph-name="d" unicode="d" horiz-adv-x="374" 
d="M261 12l-3 8h-1q-37 -22 -87 -22q-26 0 -50 7h-4q-8 5 -17.5 11.5t-14.5 11.5q-7 7 -14 19q-13 23 -18.5 42t-10.5 55q-11 79 -11 116q0 34 7 61q8 34 28 71q7 11 7 13l5 7l3 3l6 7l4 5q4 4 6 5l1 2l23 18v1l7 4q42 19 74 22h23h3q7 0 15 -5v57l1 14l1 11l-2 3q0 3 1 4
t1 3q2 30 5 47l2 11q0 10 1 13l2 12q2 17 5 20v2v3v0l1 -1v3q0 2 2 4q1 0 1 1l3 4q0 2 2 2l1 2v1q4 1 10 1.5t7 -1.5q2 0 5 -2.5t4 -5.5h1h2q0 -2 1 -3v-2q1 -2 7 -8q1 -1 5.5 -6.5t4.5 -9.5q0 -51 -2 -75l-3 -27l1 -13v-14v-23q-1 -11 -1 -24v-19v-3v-4v-5l1 -2
q1 -11 1 -53q0 -39 1 -45l-3 -48l1 -4l2 -6l1 -2q2 -10 2 -22l-2 -6q-1 -1 -1 -6l1 -3q0 -6 1 -11v-15l-2 -7h-2q3 -3 3 -14q0 -8 -0.5 -25t0.5 -30v-5v-5q0 -2 1 -3t1 -4v-6l-1 -6v-7q0 -11 1 -17q1 -1 1 -4q0 -6 3 -10l2 -4l1 -10q0 -12 -3 -30q-3 -20 -4 -21q-2 -6 -2 -7
q-2 -2 -9 -2q-2 0 -3 -4q-2 -5 -3 -5l-13 1q-12 1 -20 6q-3 2 -6 8zM248 102l-3 48l-1 2q-2 3 0 8q0 5 -1 7v6q-1 2 -1 6t1 7v7q0 11 1 18v16l1 8v9q0 11 -1 23.5t-2 19.5l-1 31q-1 5 -1 13v27v23v5q-1 1 -1 4v6l1 2l-3 6l-5 14q-9 21 -19 28q-7 4 -16 4q-23 -2 -42 -19
l-4 -4q-3 -3 -4 -6q-26 -42 -35 -81.5t-13 -83.5q-2 -2 0 -5l2 -7q0 -4 1 -6l1 -3l4 -40q1 -7 0 -11q-2 -5 0 -13l2 -5l12 -57l1 -9q-2 0 -3 -1q5 -4 8 -13l1 -6q7 -22 23 -39l6 -6q3 -3 6 -4l9 -6q12 -5 21 -4q9 0 16 6q17 14 26 29l7 13l6 9l1 2z" />
    <glyph glyph-name="e" unicode="e" horiz-adv-x="340" 
d="M265 45l-6 -7l-4 -3l-3 -3v0l-3 -2q-3 -3 -3 -4q-2 -4 -6 -5q-28 -18 -67 -18q-44 0 -80 24l-3 2l-12 17q-2 3 -6 10t-6.5 13t-4.5 15l-13 55v10l-2 19q-6 59 -6 92q0 29 5 64q8 38 26 76q4 13 6 13q4 5 11.5 15.5t10.5 15.5l6 3q15 12 29 18v1l9 3q17 6 40 6
q24 0 45.5 -6t33.5 -17q8 -10 10 -17q4 -13 7 -13l3 -3q4 -6 5 -11q12 -40 11 -73q0 -29 -1 -38q0 -3 -3 -36l-1 -10v-2v-3h-1v-3v-3h-1q-1 0 -2 -1.5t-1 -3.5t-2 -4q-1 0 -1 -1v-1q-17 -6 -17 -3h-1q-4 0 -8 4q-15 0 -26 -1l-1 -1h-2h-3h-2h-2h-2h-3q-2 2 -5 0h-6
q-2 0 -3 1h-3h-8l-6 -1h-6q-4 -1 -9 -1h-8h-7l-2 -1h-1l-2 1h-2q-3 0 -4 -1q-1 0 -1 1h-1h-8v-1l-2 1q-3 1 -21 1q1 -6 1 -22q0 -8 -1 -10t1 -9l2 -3q0 -7 5 -40l2 -10q-2 3 -4 1l1 -2q4 -4 10 -29t19 -48q1 -1 2 -3t1 -3q3 -3 3 -5q1 -1 2 -3.5t1 -5.5q4 -7 11 -11
q8 -4 12 0q20 8 35 23l13 14l10 10q8 8 9 10q3 4 6 1l1 -2l8 8q0 2 3 3q4 3 4 5q3 -9 4 -11q5 -11 5 -18q-5 -14 -14 -23zM236 258q-2 6 -2 10q-1 7 -1 33q-5 76 -13 94q-2 6 -9 16q-3 4 -5.5 8.5t-3.5 6.5q-2 10 -10.5 16t-18.5 6q-3 0 -9 -2q-2 0 -5 -3l-5 -5
q-23 -42 -32.5 -87.5t-13.5 -90.5v-5h3h8q3 -1 8 -1q2 1 5 1h1h1h2v0q3 1 16 1l15 -1l16 -1l3 2h1q1 1 7 1h2l2 -1h1h4h4l3 -1v-1q2 2 7 1l8 -1l8 1h2h2v0q0 2 -1 3z" />
    <glyph glyph-name="f" unicode="f" horiz-adv-x="272" 
d="M102 19l-2 12q-1 0 0 3v4h-1q-1 0 0 4v4h-1q-1 0 0 4v3q-4 28 -9 127q0 12 -4 62l-1 4v11l-3 21q-1 4 -1 9v11v12v26q-1 10 -1 25v13v12q-1 5 -1 10t-1 11h-15l-4 1h-2l-1 -1q-1 0 -1 1h-1l-12 3q-5 0 -7 2q-2 0 -3 1q-2 0 -3 1h-3q0 1 -1 1v0v0q-1 0 -1 1l-1 1v0l-2 2v1
v5q0 3 1 3l1 1l2 3v1v0l2 1l7 7l13 -1q4 0 7 -1l6 -2h4h3h6q1 -1 3 -1q-1 5 -1 11l-2 58q0 17 5 60v6q0 8 3 12l1 4l2 11q0 5 1 6.5t1 2.5l1 1l8 25l-1 1l4 6q29 44 53 61q12 8 38 20l4 2l11 3q28 6 52 6q31 0 44 -8.5t20 -29.5q5 -17 3 -23v-4l-1 -5l-1 1h-1l-1 -9l-2 -2
l-2 -1l-3 -5l-1 -4l-2 -1l-2 -2l-2 -2l-1 -2h-4q-11 0 -11 3l-2 5q-2 6 -2 9q0 1 -1 1q-1 -1 -1 0v3l-1 4q-3 4 -15 13q-4 1 -4 4l1 6q0 13 -5 16q-7 5 -20 5q-18 0 -37.5 -12t-29.5 -27q-11 -17 -15 -41v-2q-1 -1 -1 -3q-1 -1 -1 -3v-3q-8 -70 -8 -93q0 -20 -1 -33l-2 -26
l3 -12l1 -4q1 -3 1 -11q8 -1 15 0h1h2h1h1h2h2q4 -1 8 0h2l2 1h2l1 1h3l12 -2l8 -2q1 -1 3 -1q1 0 1 -4l2 -2l2 -1q-1 -1 -1 -4q-2 -7 -4 -10q-1 -1 -3 -2t-4 -1h-1v-1l-2 1v-1h-1h-1q-5 -1 -40 -1l-1 -1h-2h-2h-2h-2h-2h-2h-1v-6l2 -3q0 -10 1 -18t1 -21l-1 -10q-2 3 -3 2
t0 -2q5 -8 5 -33q0 -40 4 -76q0 -5 1 -8v-8q0 -3 1 -5t1 -6v-10l-1 -10q0 -19 3 -39l2 -16q0 -3 2 -9l2 -7q2 -25 -4 -68q-3 -29 -5 -36l-4 -11q0 -4 -9 -3l-3 -8q-1 -1 -3 -7q-5 1 -16 5.5t-16 9.5q-3 3 -5 17z" />
    <glyph glyph-name="g" unicode="g" horiz-adv-x="365" 
d="M78.5 -28q2.5 -7 3.5 -10q1 0 1 -2v-2h1q1 0 1 -2v-3h1q1 0 1 -2v-2q33 -57 88 -81h3l16 -3q6 0 13 1.5t9 3.5q11 9 14 19l5 12q6 27 6 91l-1 32q0 23 -1 31q0 5 -1 8q-1 2 -1 5q0 4 1 7v5q-1 3 -1 9q-1 1 -1 4q-10 -12 -25 -23l-3 -1q-18 -7 -29 -9q-10 -2 -16 -2
q-27 0 -40 4q-8 2 -20 9q-31 17 -48 48t-26 78q-5 20 -5 55q0 24 1 37v8q0 7 1 9t1 4.5t2 5.5l1 6q4 12 4 24q2 5 4 7q-1 -3 14 36l-1 1l5 9q40 58 69 77q5 3 25 10l3 1l7 1q18 3 30 3q29 0 47 -13q9 -6 18 -16.5t10 -15.5l2 -3l2 -3l-1 -1l2 -3l2 -3v-2q-1 -1 -1 -3l2 -11
v-2l1 -2q0 -1 1 0h2q0 -2 1 -3l2 -3q1 -2 7 -8q12 -12 13 -18q4 -29 4 -92l-1 -31q0 -10 1 -17v-15v-38q0 -34 1 -40v-4v-4q0 -3 1 -4t1 -3q7 -65 8 -121q0 -29 -7 -68q-1 -2 -1 -6v-7l1 -4q-2 -17 -9 -29q-1 -5 -4 -7t-5 -7l-1 -3q-17 -19 -26 -26q-3 -3 -6 -3q-1 -1 -3 -1
v1q-9 -7 -26 -10q-27 -5 -47 -5q-13 0 -20 1q-6 1 -15.5 2.5t-14.5 3.5q-4 1 -8.5 3t-9.5 3q-20 7 -33 14q-1 1 -4 2.5t-9 5.5q-4 1 -8 3l-6 3q-28 28 -31 56q-2 14 -2 19q0 7 2 15q3 11 4 12q0 4 9 3l3 6q1 1 2 2.5t2 4.5q5 -2 15.5 -6t15.5 -8q3 -3 5.5 -10zM234 261l-1 2
q0 3 1 5v4l2 54v15q0 11 1 14v14q0 10 1 15q0 7 1 8v4v2h1v3v3l1 1l1 1l2 4h-1l-2 3l-2 2l-14 7q-9 4 -11.5 6t-8.5 14q-9 13 -11 14q-8 7 -18 7q-17 0 -31 -20q-19 -25 -31 -58l-2 -4l-1 -4q-1 -1 -1 -4v-2q-1 -1 -1 -3q-11 -51 -11 -100q0 -14 2 -36q3 -32 13 -76l2 -3
l3 -3l3 -4l1 -2l9 -20q1 -1 1 -4q0 -2 2 -6l1 -1q7 -13 11 -16l3 -4l-1 -1l8 -2q5 -3 7 -3q17 0 32 15q4 4 5 6l2 4l1 2l4 5l3 5q6 10 9 23q2 10 3 11v7l-1 5q2 20 6 33q2 9 4 19.5t2 20.5l2 14z" />
    <glyph glyph-name="h" unicode="h" horiz-adv-x="417" 
d="M309 14q-2 5 -3 8v2v2h-1v2v3h-1v2v3l-1 41q-1 3 -0.5 10t0.5 17l1 21l1 50l-1 3q0 6 1 10v9v7q-1 3 -1 8t1 9v9q1 5 1 17q0 16 -1 25l1 11q0 9 -1 10q-1 33 -22 90q-8 25 -15 38l-2 4q-4 4 -4 7l-2 2q0 2 -7 9v1l-1 2l-14 15v-1l-5 5q-15 0 -30.5 -10t-24.5 -25
q-9 -17 -11 -21v-2l-2 -3q-2 -2 -2 -3l-13 -33q1 -10 1 -27q0 -30 -3 -64q0 -2 3 -11l1 -4q2 -13 1 -24q0 -6 -1 -7q-2 -2 -2 -7l2 -2q-1 -3 -1 -13v-16l-2 -8q-1 1 -2 0q4 -4 2 -22q-3 -24 -3 -47q1 -1 1 -4q-1 -2 -1 -5q0 -2 1 -3v-3q0 -3 -1 -5l-1 -6l-1 -10l1 -10v-3
q0 -2 2 -8l2 -4v-4q0 -9 -6 -24l-6 -13l-3 -2l1 -1q0 -1 2 -1l1 -1q1 -1 -4 -3l-1 -1q-11 -4 -20 -4q-8 0 -8 3v1l-2 1l-9 -2q-6 0 -10 4l-2 1l10 5l-4 2q-1 0 -3 3l-7 4h-1q-5 2 -6 5l-1 2l1 15l1 6q1 -1 1 -4l2 -3l1 2q1 1 1 4l-1 2v3q-1 1 -1 3l1 2v19q0 14 1 23v21l-1 2
q0 4 1 7v7v6q-1 2 -1 6t1 7t1 7q0 12 1 19t1 15q0 5 1 9t1 9v15l-2 34l-3 49q-1 2 -1 7q0 6 1 9v14q1 7 1 17q0 9 -1 12v6q-1 2 -1 6t1 7v4v9v6q-1 1 -1 3q0 3 1 4v2v29h-1h-1l1 9q2 23 -3 92v15q0 11 -1 13l-1 2q0 4 1 6v3q0 29 1 50v13v12q0 7 1 12v13q0 6 1 7q2 0 0 2v2
q0 1 1 1q0 -1 1 -1v3q-1 1 -1 3l1 1h2l2 4q0 2 1 3l1 2l1 1q3 1 8.5 2t8.5 1q0 -2 4 -3q5 -2 6 -4h1h2l1 -2l1 -2q1 -2 8 -7q10 -7 12 -14q5 -27 5 -79v-32q0 1 2 -15q0 -13 1 -16q0 -20 1 -39t1 -39q1 -1 1 -5v-1l1 1q34 26 81 33h11h11q27 -8 54 -29.5t39 -42.5
q9 -17 18 -58q0 -2 6 -11l1 -4q5 -12 6 -28q0 -6 -1 -8q-2 -3 0 -8l1 -3q0 -6 1 -10l1 -26l-1 -9h-2q3 -4 3 -16l-1 -38q-2 -26 -2 -40v-6v-7q0 -2 1 -3l-2 -14q-1 -3 -1 -7q-2 -20 -1 -30v-5q0 -7 3 -13l1 -5q1 -13 -6 -44l-5 -19l-2 -6q-2 -2 -10 -2l-3 -4l-2 -4l-10 2
q-14 2 -23 6q-3 4 -5 9zM72 51l2 4l-1 4z" />
    <glyph glyph-name="i" unicode="i" horiz-adv-x="190" 
d="M75.5 4q-3.5 4 -4.5 6v2q0 1 -1 1h-1v1v2h-1v0q-1 0 -1 2v1q-8 18 -12 82l-1 1q-1 1 -1 5v5l-1 9q-1 1 0 5v4q1 3 1 12v11q0 2 2 5v6q0 10 -1 17l-2 14l-1 10q-1 8 -1 19v17v16v4q-1 1 -1 3l1 4v2l1 5v3l-1 2q0 1 1 1v2q1 7 1 16h-2l2 5q1 6 0.5 13t-0.5 13v26q0 5 1 9v7
l-2 2q0 2 1 3l1 2q0 7 4 29l2 16q0 4 1 7q0 7 1 10l2 4l1 2v1h1q1 0 1 2q-1 1 0 1h1l1 1q1 4 4 4q1 0 1 1h1q3 1 8 2t9 0q0 -1 4 -2q3 -1 5 -3q0 -1 1 0q1 0 3 -2l1 -2q4 -1 14 -9q3 -3 3 -5q1 -6 1 -27q0 -16 -1 -22q-1 -8 -1 -18q0 -5 1 -9v-8l-1 -23q0 -20 1 -21v-2
q-1 -1 0 -3l1 -2v-3q1 -15 1 -64l-3 -33l2 -4l2 -4q3 -5 1 -14q0 -3 -1 -4t-1 -4l1 -2q0 -4 1 -7l-1 -11l-1 -4l-3 -1q5 -3 3 -14v-8q0 -7 2 -23l-1 -3v-3l1 -2l1 -2v-4l-1 -4q0 -6 2 -16q1 -2 1.5 -5t0.5 -5l3 -3l2 -3l1 -6q0 -7 -3 -19q-1 -13 -2 -14l-2 -5l-9 -2
q-2 0 -3 -4l-2 -2l-16 -1h-8q-8 0 -10 2q-2 0 -5.5 4zM66 608q0 -1 1 -2h2q0 2 1 3t4 1v1l1 1h1l2 1h1v-1v1v1v-1l8 6l1 1v0l2 1h1l1 1l2 -1v0v0v0q1 1 1.5 0.5t1.5 -0.5h1q1 0 2.5 -1t2.5 -2v0q2 0 3.5 -1t4.5 -1h4v-2l9 -8q7 -11 12 -38l-2 -5v0h-1q-2 -8 -5 -10v0v0h-2
v-2v0q-1 -9 -6 -14v0l-1 -2v1v0v-1v1h-2l-1 -1h-1h-2.5t-6.5 3q-5 -3 -7 -3v0v0l-3 -1v0h-1q-1 0 -1.5 -0.5t-1.5 -0.5h-1l-1 -2h-1l-9 -2h-3q-4 0 -15 8l-1 1q-2 2 -3 1.5l-1 -0.5q-1 1 -2.5 3.5t-4.5 4.5l-1 1q0 1 -0.5 1.5t-0.5 1.5l-1 2v1l-1 2v2v1q0 1 -1.5 3t0.5 2
q-1 0 -1 1v0q-2 1 -2 3l-1 1v1l-1 8q0 10 3.5 18t11.5 10l1 1v0v-1l1 3v-2v0q1 0 1 1t1 1h2v0v1v-1h1h4v-1z" />
    <glyph glyph-name="j" unicode="j" horiz-adv-x="228" 
d="M8 -106q4 -7 6 -7l1 -2l1 -3h1l2 -2q0 -2 1 -2h1l1 -2q1 -1 1 -3q17 -20 32 -32q5 -4 11 -4t10 5v2l2 8l2 8q0 2 1.5 4.5t2.5 4.5q5 9 9 27l4 17q3 16 5 36t3 73q2 36 2 70v8q-1 3 -1 7q0 6 1 9l1 6q0 8 -2 18l-1 4q0 3 1 4t1 3q0 26 -1 37h-1v1v11q1 27 -7 114
q-1 3 -1 17q0 13 -1 15l-1 3q-1 3 0 6l1 4q-2 15 -2 53l-1 12v12q3 26 4 26l-1 1v3h1q1 -1 1 0v1v2h1l1 1q1 4 4 5q1 0 1 1h1q3 1 8 1.5t9 0.5q0 -1 4 -2t5 -2q0 -1 1 0q1 0 3 -2l1 -1q3 -3 8 -4q11 -5 11 -10q2 -9 4.5 -31t3.5 -45q0 -9 3 -52q1 -8 1 -18q2 -13 4 -51
q1 -17 1.5 -28.5t1.5 -18.5v-5v-6q0 -4 1 -6l2 -6q2 -56 2 -90q0 -41 -1 -62q-3 -36 -9 -70q0 -4 1 -6v-8l1 -3q-2 -20 -5 -29q-2 -6 -3 -7l-3 -8l1 -3l-10 -32l-5 -7l-2 1v-2q0 -7 -9 -21q-20 -22 -37 -33l-8 -4l-2 -1l-4 -2l-20 -3q-3 -1 -9 -1l-8 -2q-14 -2 -18 -2
q-17 0 -21 2q-24 13 -39 45q-8 15 -12 27l-2 11q-2 3 5 5q2 0 3 1t0 4v2v7l18 3h7q8 0 10 -1q5 -2 9 -7zM96 608l2 -2h2q-1 2 0 3t4 1v1l1 1h1l2 1h1v-1v1v1v-1l8 6l1 1v0l2 1h1l1 1l2 -1v0v0v0q1 1 1.5 0.5t1.5 -0.5h1q1 0 2.5 -1t2.5 -2v0q2 0 3.5 -1t4.5 -1h4v-2l9 -7
q8 -10 13 -38l-2 -5v0h-1q-2 -7 -5 -9v0v0h-2v-2v0q0 -7 -5 -15v0l-1 -2v1v0v-1v1h-2l-1 -1h-1h-2.5t-6.5 3q-4 -3 -7 -3v0v0l-3 -1v0h-1q-1 0 -1.5 -0.5t-1.5 -0.5h-1l-1 -2h-1l-9 -2h-3q-3 0 -15 7l-1 1q-3 2 -3.5 1.5l-0.5 -0.5q-1 1 -2.5 3.5t-4.5 4.5l-1 1l-1.5 1.5
t-0.5 1.5l-1 2v1l-1 2v2v1q0 1 -1.5 2.5t0.5 1.5q-1 0 -1 1v0q-2 1 -2 3l-1 1v1l-1 8q0 10 3.5 18t11.5 10v1v0l1 -1v3v-2v0q1 0 1 1t1 1h2v0v1v-1h1q2 1 4 1v-1z" />
    <glyph glyph-name="k" unicode="k" horiz-adv-x="361" 
d="M61.5 19.5q-2.5 6.5 -3.5 9.5v2v3h-1q-2 0 0 2v3l-1 -1q-1 0 -1 1v2v3q-3 24 -3 121l-2 3l2 8v7l-1 6q-1 4 0 7l1 14q3 33 3 35q0 9 2 17v15q-1 5 -0.5 9t0.5 7q-1 4 -1 7.5t-1 6.5l-1 20q-1 8 -0.5 15t0.5 10v26q0 18 1 23v6q-1 1 -1 4q0 4 1 6v4v7v5q-1 1 -1 3t1 3v2
l1 25h-1l1 7q1 16 -2 79v13q2 9 0 12l-1 2v5l1 2q-1 16 2 47v13q-1 9 0 12v11v13q0 4 3 7v3l-1 2h1h1v3q-1 1 -1 3l2 1q1 0 1 1q1 1 1 4q0 1 2 3l1 2v1q4 1 9.5 2t8.5 1q0 -1 4 -2q3 -1 5 -5h2h2l2 -5l8 -7q11 -9 11 -15q5 -23 5 -66v-39v-8l1 -20q0 1 2 -33l-1 -21l1 -13
v-3v-5q0 -3 1 -4v-3q1 -3 1 -100q0 -9 -4 -50q0 -3 1 -4l2 -6l1 -3q1 -3 1 -9l3 4l7 14q6 13 11 21.5t7 13.5l2 4q1 1 1 3v1q11 24 22 58q0 1 7 17l5 11v5l-1 4q0 3 1 6.5t2 6.5l3 4l2 3l-1 2l2 8l2 8l3 5l2 -1q-1 1 -1 5q0 5 2 9q7 15 8 29q0 2 1 3v3l-1 2l2 6q1 1 1 3
q2 10 2 15q0 2 1 3v3q0 3 -1 4q-2 2 -2 3q0 8 7 23l5 12q3 2 3 4q2 2 9 0l4 2l2 3q13 -3 21 -6q10 -3 15 -11l2 -5v-2v-1h1l-1 -1v-2h1h1v-2l-1 -1q2 -15 -9 -76l1 -2q0 -3 -2 -4q-2 -8 -2 -9q0 -5 -2 -9l-2 -5l-3 -10l-4 -10q-1 -1 -1 -2.5t-1 -2.5l-3 -6q-4 -5 -5 -15
l-3 -14l-8 -29q-5 -7 -14 -31l-2 -7l-3 -3l-1 -2q-1 -2 -1 -5l-2 -4v-1l-2 -1l-1 -1l-9 -14l1 -1v-1l-3 -3l-17 -27l-6 -10t-5 -8l-6 -6q-1 -1 -1 -3h1l15 1q14 0 39 -10l2 -1l1 -1q1 -1 3 -1l2 -1q24 -17 38 -49q3 -6 9 -31q0 -1 3 -4l3 -3q2 -3 4 -14q0 -3 -1 -4
q-2 -2 0 -4l1 -2q1 -1 1 -3t1 -4l2 -10l-1 -5l-2 -1q3 -1 3 -9q0 -21 4 -36v-3v-3l1 -2l1 -2v-4l-1 -4q0 -9 1 -14q1 -1 1 -3q0 -3 3 -6l2 -2l1 -6q0 -7 -3 -16q-2 -7 -5 -10q-2 -2 -2 -3q-1 -1 -10 -1l-2 -2l-3 -2l-33 4l-5 4q-3 3 -4 3v1v1h-1q-1 0 0 1v1h-1h-1v1v2
q-5 12 -7 27q-1 4 -1 18q-1 4 -1 8.5t-1 7.5l-1 1q-1 1 -1 5v4q0 2 -1 3q-2 5 -1 8v4v8l-1 12v6v4l-8 24q-3 13 -8 22l-3 11q-1 4 -2 6.5t-2 4.5l-1 1l-2 4v2l-2 3l-1 1l1 2h-1l-3 8l-1 -1v3q-3 13 -12 19q-6 2 -8 2h-2l-1 1q-6 -1 -10.5 -2t-7.5 -2l-4 -2l-4 -2l-4 -2
q-3 -3 -8 -6t-8 -5q0 -8 -1 -14q-2 -32 -2 -49v-5v-5q0 -3 1 -4v-4v-6l-1 -6l-1 -13l1 -12v-5q0 -5 3 -11l2 -4q1 -9 -5 -42q-3 -21 -4 -22l-3 -7q0 -2 -9 -2l-2 -5l-3 -5q-4 1 -15.5 4t-17.5 6q-3 2 -5.5 8.5z" />
    <glyph glyph-name="l" unicode="l" horiz-adv-x="232" 
d="M214 34l-1.5 -4.5t-1.5 -2.5q1 -1 -1 -3l-2 -1l1 -1l-3 -2l-2 -2q0 -1 1 -1v0l-4 -5q-27 -13 -54 -13q-35 0 -58 24l-2 1q-3 3 -5 7t-2 7q-1 0 -3 5l-3 6v1l-2 15q-2 13 -4 23t-3 17v6q0 13 -1 17l-4 28l-3 32q-6 38 -6 65v44v35l1 8q-1 3 -1 7q0 6 1 10l1 4v12
q-1 2 -0.5 4.5t-0.5 4.5v4q0 4 1 5v3l2 18v21h-1v0l1 11q1 8 2.5 30.5t3.5 57.5q0 17 1 27l2 17l1 15l-1 3q1 1 1 2.5t1 2.5t0.5 1.5t-0.5 1.5q1 11 4 26.5t4 22.5q1 4 1.5 10.5t1.5 10.5l8 21l1 2v1h1v1q0 2 2 2h1q2 1 3.5 1t1.5 1v0l1 2q4 0 9 -1t7 -2l8 -4h2l1 -1l1 -1
l1 -2q4 -1 14 -9q2 -2 1 -5q1 -9 0 -28t-4 -38q-3 -23 -5 -49l-1 -17q0 -91 -4 -95q-1 -1 -1 -5v-6q0 -4 1 -6v-4l-1 -153q1 -6 1 -25q0 -26 -0.5 -35.5t-0.5 -11.5q1 -1 1 -6q2 -3 2 -8l2 -3q3 -21 3 -29q0 -6 -1 -7q-2 -3 0 -8l3 -3q0 -9 1 -16q1 -4 2 -8.5t0 -6.5l-1 -8
q-1 1 -2 0q7 -7 8 -20q1 -17 7 -34l1 -3v-2q0 -1 1 -1l1 -2l-1 -5l-2 -7q-1 -1 -0.5 -1.5t0.5 -1.5l1 -1h2q6 0 8 10q2 6 3 7l6 11l3 5l2 4q0 1 8 -2l2 3q0 1 1 3t2 1l11 -3q14 -5 18 -12q0 -8 -3 -17z" />
    <glyph glyph-name="m" unicode="m" horiz-adv-x="625" 
d="M78 18l-4 5l-1 2v2h-1v1v2h-1h-1v2v1q-8 18 -12 79l-2 2v5v4l-1 9q-1 1 0 5l1 4v12q0 7 1 9q-2 4 -2 6q-4 20 -2 55q0 8 -1 11l1 16q0 13 -1 16v4q-1 1 -1 3t1 3l1 3l-1 8l-1 2l1 2q1 0 1 1v16h-1h-1l2 5q1 8 -2 51v9v7l-1 1q0 2 1 3v2q0 6 2 30l1 8v8l2 16q0 4 1 5v1v2
h1q1 0 1 2l-1 1l1 1q2 0 3 1.5t1 2.5t2 1v1l1 1q4 1 9 2t8 0l4 -1l6 -3h1h2l1 -1l1 -2q2 -2 7 -4q2 -1 7 -4t5 -6q3 -15 4 -31v-6l2 3l7 8l7 7q24 18 57.5 30.5t56.5 12.5q32 0 58 -39l6 -8l5 -6l2 -4q8 12 22 27t28 24l9 3l7 4h2q16 2 28 2q28 0 57 -7t44 -18l14 -13
l10 -13q1 -1 3 -7l3 -6l5 -14l3 -5l4 -6l2 -3q6 -14 9 -29v-8q-1 -2 -1 -8l2 -4l2 -37l-1 -10q-1 3 -2 2t0 -2q2 -3 2 -14t-1 -18q-4 -45 -5 -70v-7q-1 -3 -1 -8v-4v-6q0 -6 -1 -9l-2 -9q-3 -16 -3 -34v-8v-6q0 -2 2 -8l1 -6q0 -15 -7 -53l-4 -26q-1 -2 -2 -5t-3 -4t-7 -1
l-2 -5l-3 -6l-11 2q-13 1 -23 7q-4 4 -5 13l-3 9q-1 0 -1 3l1 3h-1q-1 2 0 3v3q0 1 -1 1v3v3q-1 30 9 168l-1 3q0 6 1 10v11v8v8l1 10q1 4 1 10q1 11 1 43l-1 20q-4 35 -24 78q-10 18 -22 32l-4 3q-2 0 -3 1q-6 6 -9 6q-8 5 -15 6l-2 1h-2h-4q-6 0 -16 -4v-1l-5 -3
q-17 -25 -31 -73l-8 -32l1 -4q0 -3 -1 -5l-2 -5l-6 -35l-6 -29q0 -3 -1 -5l2 -58v-8l-1 -8q2 -6 2 -12t-1 -10l-1 -9l-1 -19l1 -17v-6q0 -7 3 -15l1 -5q2 -15 -3 -42q-3 -12 -4 -13l-2 -3l-10 -1h-2v-1q-1 -1 -3 -1l-10 -2.5t-10 -1.5h-13l-7 8l-3 3v1v3h-1v1v3h-1v1v3
q-4 21 -4 68v46v45l-1 4q-1 5 0 12q0 8 -1 11l-1 20q-1 5 0 12v11l-3 52l-2 23q-4 21 -15 49q-2 6 -5 14t-6 14q-5 18 -20 16q-1 -1 -9 -4l-8 -4q-8 -6 -12 -11l-2 -1l-2 -2l-16 -20l-5 -6q-19 -31 -31 -78q-6 -22 -6 -27l1 -3l-3 -8l-2 -32l-2 -32l2 -4l2 -4q2 -7 1 -14
q0 -3 -1 -4q-2 -2 -1 -4l1 -2v-7v-10l-1 -5h-3q5 -3 3 -14v-9q0 -15 1 -23v-3q0 -2 1 -3l1 -4v-4l-1 -4q0 -6 2 -16q0 -4 2 -6l3 -3q1 -1 1 -3q1 -2 1 -10q0 -10 -1 -17q-2 -13 -3 -14q-2 -2 -2 -5l-10 -2l-2 -4l-2 -3h-17q-15 0 -17 2z" />
    <glyph glyph-name="n" unicode="n" horiz-adv-x="409" 
d="M76.5 14q-3.5 4 -4.5 6q-1 0 -1 2v1h-1v1q0 2 -1 2h-1v2v1q-8 21 -14 82l-1 2q-2 2 0 5q0 4 -1 5v5q-1 1 -1 4l1 6v4q0 8 1 13v11l1 6v6q0 10 -1 17l-1 14l-2 30q0 11 1 19v16v3q-1 1 -1 3q0 3 1 4l1 3v5v4l-1 1l1 2v2q1 7 1 17h-1l2 5q1 7 1 53q0 5 1 9v8l-1 2q0 2 1 3
v1q2 20 5 31q0 9 2 17q1 1 1 3t1 4q0 6 1 9l2 4v2v2h1q1 0 1 1q-1 1 -0.5 1.5t1.5 0.5l1 1q1 4 4 5h2v1q4 1 9 1.5t8 -0.5l4 -2q3 -1 5 -3q0 -1 1 0q1 0 3 -2l1 -2l7 -5q10 -7 10 -11q1 -5 1 -31q0 -11 -1 -19l-2 -19v-9v-9v-7l7 11q14 22 18 26q37 43 74 60l8 2l4 1
q1 1 3 1q24 3 53 -10t39 -32q8 -18 10 -31q1 -5 2 -14t2 -16q0 -6 5 -13l2 -4q4 -17 5 -31q0 -7 -1 -9q-1 -3 0 -10l1 -3l1 -16q1 -9 1 -25v-11q-2 4 -4 2l1 -2q3 -6 3 -22v-29q0 -10 -0.5 -23.5t0.5 -31.5v-6v-7q0 -3 1 -4v-6q0 -5 -1 -8l-1 -8l-1 -15l1 -14q0 -3 1 -5
q0 -5 3 -11l1 -5v-7q0 -12 -4 -24q-2 -8 -4 -8q0 1 -1 2t-2 0q-3 0 -5 -1l-4 -2q-1 -1 -1 -5v-5l1 -2l-12 -3q-6 -2 -10.5 -2.5t-11.5 0.5q-4 1 -9 11l-4 9q-1 0 -1 1l1 1h-1v0q-1 0 0 1v2h-1q-1 -1 -1 0v1v1q-4 16 -4 52v38v37l-1 3v11v10v9q-1 3 -1 9l1 10v11q0 26 -1 50
l1 13q0 11 -1 12q-4 43 -21 105l-9 32v2q-1 0 -1 2l1 2v2l-1 6l-1 2v1q-2 4 -9 2l-4 -1q-23 -19 -54 -68q-12 -19 -13 -22l-1 -3q-4 -4 -4 -6l-21 -44q-3 -5 -5 -12t-3 -11q-1 -2 -2 -4.5t-2 -6.5l-3 -13q-2 -6 -3 -7v-2q-1 -1 -1 -3q-1 1 -1 0v-2q0 -2 -2 -4h-1
q-1 -1 -1 -2.5t-1 -2.5l-2 -2v-4l1 -5l2 -3q2 -8 2 -15q0 -3 -1 -4q-2 -2 -2 -4l1 -2l1 -8q0 -7 -1 -10l-1 -5h-3q5 -3 3 -15v-9q0 -15 1 -23q1 -1 1 -3v-3l1 -2v-3v-4q0 -3 -1 -4q0 -8 3 -16l2 -7q0 -1 2 -3t2 -3q2 -4 2 -10l-2 -16l-2 -15l-2 -5q-2 -2 -10 -3l-2 -3l-2 -4
h-16h-8q-9 0 -10 1q-2 1 -5.5 5z" />
    <glyph glyph-name="o" unicode="o" horiz-adv-x="360" 
d="M221 435l-3 3q-2 0 -10 6l-11 5q-7 5 -19 5q-15 0 -22 -10q-14 -20 -24 -47.5t-14 -54.5q-10 -65 -8 -120l-0.5 -2t0.5 -4l2 -8l2 -14q14 -81 37 -132q13 -24 29 -28q5 0 12 4q11 9 15 15l5 5q3 3 3 4l1 3q12 27 13 31l3 10l2 -4v3q0 2 2.5 10.5t5.5 21.5q10 54 10 85
l1 8v10v6q-1 3 -1 8l1 10l-1 12q-2 29 -5 42l-4 17l-3 9q-1 2 -2 3.5t-2 2.5q-8 27 -10 43l-2 10q-2 9 -3 14.5t-1 6.5l1 6q-1 1 1 3zM264 450l5 -4l2 -3q2 -4 3 -3l1 1l2 -3l2 -3h1l3 -7q18 -35 28 -94.5t9 -126.5l1 -4q-1 -8 -3.5 -26t-4.5 -28q-5 -13 -9 -28
q-6 -25 -28 -57q-7 -11 -19 -22q-19 -19 -43.5 -28t-49.5 -9q-20 0 -37 6q-29 11 -57 59q-5 10 -11 27l-2 7q-1 7 -5 16l-3 10q-1 3 0 6q0 3 -1 4q-6 42 -6 49h-1v15q3 108 17 161l17 43l1 4q2 4 8 10l18 19q9 10 17.5 17.5t20.5 13.5q19 10 40 10q13 0 28 -3q21 -4 26 -8
q0 -2 4 -3q4 -3 5 -3l-1 -1v0l3 -4l2 -2q5 0 17 -8z" />
    <glyph glyph-name="p" unicode="p" horiz-adv-x="376" 
d="M69.5 -213q-2.5 7 -3.5 10v3v2h-1v2v3q0 1 -1 0q-1 1 0 3v3q-6 32 -7 129l-2 3q0 5 1 8v8q-2 6 -2 14q0 4 1 7t1 8q0 12 1 20v17l1 9q1 4 1 9q0 15 -1 28l-2 20l-3 47v27v26v6q-1 1 -1 5l1 6v4v8v5q-1 1 -1 3t1 3v2v27h-1l1 8q1 14 -2 84v15v11l-1 3q0 3 1 5v3q0 8 2 50
v13q0 10 1 13q0 7 1 13q0 10 1 14q0 7 1 8q1 0 1 2q-1 1 -1 3h1h1v3q-1 2 1 4q1 0 1 1q1 1 1 4l3 4q1 0 1 1v1q9 3 16 3q1 0 2 -1t3 -2q5 -1 6 -6l1 1h2l2 -6l7 -7q12 -10 12 -17q1 -10 3 -50v-5l11 10q26 20 72 34q25 7 37 7q19 0 36 -10q16 -9 28 -25l4 -8l3 -4l2 -4
q26 -63 33 -147q2 -26 -3 -82l2 -17l1 -4q0 -19 -4 -36q-1 -7 -3 -9q-3 -7 -4 -9l1 -5q-5 -16 -8 -24.5t-5 -13.5l-6 -9q0 2 -1 3l-1 -2q0 -13 -14 -27q-25 -22 -53 -31q-1 -1 -3 -1h-4l-4 -1q-2 -2 -8 -2q-5 -1 -15 -1q-20 2 -32 4l-7 2l-6 2l-8 2q-5 0 -6 1q-9 3 -27 11
v-1q1 -10 0 -17l-1 -7h-3q3 -4 3 -16q0 -9 -0.5 -28t0.5 -33v-5q-1 -5 0 -6q0 -2 1 -3v-4q0 -8 -2 -14q0 -17 1 -26q1 -1 1 -5q0 -6 3 -12l2 -5q2 -12 -3 -44l-5 -24q-2 -6 -2 -8q-2 -2 -10 -2l-2 -5l-1 -2l-2 -3q-4 1 -15.5 3.5t-17.5 5.5q-3 2 -5.5 9zM122 314
q0 -29 1 -36v-3v-5q0 -6 2 -8q2 -50 2 -106l-2 -52l1 -2h1l1 -1l2 -2l2 -1l2 -3q73 -47 106 -43l1 2l5 8l3 9l3 5l2 6q6 15 10.5 29.5t5.5 22.5q5 30 5 69q0 14 -2 58q-3 49 -7 73l-2 7l-2 6q-1 2 -1 8v5l-5 18q-1 2 0 3q0 2 -1 3q-3 16 -7 25h-1l-1 7q-1 3 -2 7.5t-2 10.5
l-4 16q-1 3 -4 6q-1 1 -4 1q-7 0 -22 -6l-2 -2q-1 -1 -4 -1l-4 -2q-25 -18 -37 -33q-4 -4 -9.5 -15t-9.5 -22q-2 -5 -3 -8.5t-2 -4.5v-2q0 -2 -1 -2h-1v-2v-2q0 -1 -1 -1l-2 -1q-1 -1 -1 -4l-3 -3v-1l-1 -1q-1 -1 -5 -1v-29z" />
    <glyph glyph-name="q" unicode="q" horiz-adv-x="371" 
d="M263 -263l-4 2q-1 0 -1 2v2v0l-1 -1q-1 0 -1 2q0 1 -1 1h-1l-1 1v2q-12 23 -20 110l-1 3v8q0 6 -1 9v7q-1 3 -1 7l1 10v8q0 13 1 22v23q0 6 1 11t1 11q0 18 -1 33q-1 14 -1 29v2q-20 -18 -30 -25l-3 -1q-6 -3 -15 -5.5t-15 -2.5q-10 -2 -16 -1q-26 0 -41 7q-11 5 -19 14
q-55 53 -62 158q-1 12 -1 36q0 47 7 92l4 22l3 8l2 8l2 4q0 1 5 13l3 10q1 4 5 10l2 3q12 21 23 38l8 9q51 44 91 54q3 2 27 3l2 1q5 0 8 -1q20 -3 38 -11l3 9v1v2h1h1v1v2h1h2q3 4 4 4t1 1v0h9h8q0 -1 4 -2q3 -1 5 -3h1h2l1 -1q0 -2 1 -2l6 -4q10 -6 11 -11q1 -10 0 -27
t-3 -36l-3 -28q-1 -3 -1 -15v-15l-2 -39l-2 -44v-5l-1 -5q0 -4 1 -6v-4q0 -21 -1 -37q4 -8 2 -23l-1 -10l-1 -4l-1 -5h1l-1 -4q0 -2 -1 -2v-3h1q0 -2 -1 -3v0l-1 -46q0 -26 -3 -50l-2 -19l2 -14l1 -4q2 -15 1 -30q0 -7 -1 -8q-2 -4 -2 -8l1 -4v-15v-20l-1 -9q-1 1 -3 0
q3 -5 3 -18q0 -45 2 -65v-5v-5q0 -3 1 -4t1 -4v-6q-1 -5 0 -6q0 -11 3 -21l2 -8l3 -4q2 -2 2 -3q2 -6 2 -13l-1 -12l-2 -9l-2 -3q0 -1 -8 -4l-2 -3l-2 -2l-8 -4q-14 -7 -22 -7q-4 0 -8 4zM245 402q-6 5 -8 9t-3 9.5t-2 8.5q-1 9 -3 11q-4 14 -11 20.5t-16 6.5q-5 0 -15 -4
q-12 -6 -25.5 -19t-22.5 -27l-4 -8q-3 -7 -4 -9q-11 -31 -19 -75.5t-8 -82.5q0 -61 10 -119l2 -4q1 -1 1 -2.5t1 -2.5l3 -6l1 -2q3 -5 10 -24l1 -6q-1 -2 1 -6l1 -1q1 -4 8 -18q0 -2 1 -3l1 -2l-1 -2l6 -3q4 -4 6 -4q17 -3 33 12q4 3 6 6l2 3l2 3q7 7 8 10q10 13 14 24l5 12
l2 13l5 17v4l2 31v7q-1 3 -1 7q0 6 1 9q2 12 2 15v7l-1 4q0 3 1 4l1 2q3 39 2 34h-1l1 10q3 20 6 99q0 8 1 15l1 12l-1 2z" />
    <glyph glyph-name="r" unicode="r" horiz-adv-x="296" 
d="M65 15l-4 7l1 1l-6 5q-3 3 -3 5l-1 32l2 21v3q-1 7 -1 21l-1 2v4v6v5q-1 0 -1 3l1 6v4l2 24l1 4q0 10 -1 11v2v3v3l-1 4v12v2l-1 13l-1 18v18v16v3q-1 1 -1 3q0 3 1 5l1 2v4q-1 1 -1 5v2q-1 1 0 2h1v17h-1l1 5q1 7 1 53l1 8q0 7 -1 8l-1 1q0 3 1 4l1 2q0 14 4 29
q0 10 2 16q1 1 1 2.5t1 3.5q0 5 1.5 8.5t1.5 5.5q1 0 1 1v2l1 -1v2v2h1l2 1l2 2q0 1 2 1q1 0 1 1t1 1l8 1q8 0 9 -1l3 -2q2 -1 3 -2t2 -1h1h2l1 -1l1 -2l7 -6q1 -1 5.5 -3.5t4.5 -5.5q1 -4 1 -29q0 -10 -1 -18q0 -4 -1 -5l8 7l13 13q1 2 6 7q1 0 1 1t1 2t3 2t6 4q3 2 3 3
q12 8 19 14l8 5l4 2q2 1 6 5q17 5 41 5q17 0 21 -2l2 -1l4 -2q2 0 0 -6l3 -2l1 -1q2 0 3 -1l1 -1l-4 -5q-3 -3 -11 -9q-1 -1 -7 0l-6 1l-2 1h-1v0h-2l-1 1v-1h-2l-1 1q-25 -7 -64 -54v-2l-3 -4q-4 -6 -5 -8q-1 -4 -5 -9l-3 -3l-11 -22l-2 -4l-3 -6q-2 -5 -7 -30l-4 -29
l-5 -34q0 -3 1 -3v-4l-1 -6l-1 -2v-4v-4l1 -2l-1 -2l-1 -2l1 -1q1 -4 1 -15q0 -4 -1 -5q-2 -2 -2 -5h1v-9v-10l-1 -6h-1v-2q2 -7 1 -12q0 -2 -1 -3q1 -5 1 -13v-11q-1 -4 -1 -9l2 -2q0 -2 -2 -4h1v-3v-4q-1 -2 -1 -5l-1 -8l1 -8q1 -1 1 -3q0 -4 3 -7q1 -1 1 -3v-5
q0 -8 -3 -23l-5 -14l-3 -5q0 -1 -9 -1l-2 -3q-3 -3 -4 -3q0 1 -4 1v0h-4q-12 0 -12 1l-3 2q-6 2 -9 2z" />
    <glyph glyph-name="s" unicode="s" horiz-adv-x="294" 
d="M70 104l4 -8v-2l1 -3h1q1 0 1.5 -2t0.5 -3l1 1q1 0 1 -3v-2q15 -23 35.5 -37t43.5 -14q11 0 22 4l2 2q6 6 9 11.5t5 12.5l4 11q2 20 4 29v16q-6 44 -42 85q-10 10 -33 27l-6 4l-12 12q-4 3 -4 4l-11 9q-5 3 -8 6l-2 4l-3 3q-21 26 -27 35l-1 -1l-6 12q-4 17 -4 40
q0 29 7 54t19 38q7 7 30 20l3 3l11 3q31 9 60 9q18 -1 29.5 -6.5t25.5 -17.5q13 -15 13 -18q0 -2 5 -7h-1h-1l3 -4q1 -4 2 -4q0 -2 -1 -3v-2q0 -7 1 -9v-3l-1 -2q-1 -1 0 -2q0 -2 -1 -2q-1 -2 -7.5 -5t-7.5 -1l-4 3l-7 6h-1h-1q-1 0 -2 2q0 1 -2 3l-11 7q-10 5 -11 7
q-18 32 -40 32q-18 0 -37 -19q-10 -7 -13 -24q-4 -22 -4 -32q0 -11 4 -31l2 -7q1 -1 1 -3t2 -5q14 -23 38 -51t39 -38q27 -19 47 -44q0 -3 4 -6l7 -7l2 -2q12 -14 17 -32l1 -10l1 -10l3 -4l1 -19q0 -10 -2 -24q0 -3 -3 -11l-2 3q-1 0 -1 -3q1 -7 -3.5 -17t-9.5 -15
q-32 -30 -61 -44l-15 -4q-13 -5 -19 -6t-21 -1t-33 4l-15 6l-9 3l-7 1q-32 22 -44 51q-10 20 -8 34v11q0 4 6 4h3l1 8l2 7q5 0 16 -2.5t16 -5.5q3 -1 8 -9z" />
    <glyph glyph-name="t" unicode="t" horiz-adv-x="293" 
d="M267 14q-1 -2 -3 -4t-5 -2l-2 -2v-1l-4 -2l-2 -1l-6 -3q-18 -3 -35 -3q-38 0 -65 13h-2l-4 5l-4 2q0 2 -3 3l-4 3l-6 10q-8 14 -10 22l-3 13q-2 5 -5.5 15.5t-4.5 19.5q-5 22 -6 32.5t-1 30v28.5q0 4 -1 6t-1 5q0 4 1 7l1 4v9v6l-1 4q0 2 1 3q1 0 1 2l1 31h-1l1 10
q5 60 5 118l2 21l1 19l-2 4q1 2 1 7h-1v-1l-2 1q-2 1 -15 1q-28 0 -32.5 -0.5t-5.5 -0.5h-4h-1h-1h-1l-15 3h-3q-3 0 -4 1q-3 0 -4 1q-4 0 -5 1h-1h-1h-1v0q0 1 -1 1t-1 1l-2 2h-1v1v4q-2 0 0 2l1 2l2 2v1l1 1h1l7 8l24 -1q4 -1 9 -1h4l26 1h12q5 -1 11 -1h1h1h2h1h2l5 63
q0 -1 2 23q2 27 2 26t2 23l2 27l2 16q1 1 1 5v5h1v5q0 5 1 6q0 2 1 3l1 2l2 12q0 1 3 4v2l1 3q2 2 9 4t8 0l4 -6q3 -3 5 -11q0 -1 1 0q1 0 1 -1q1 0 2 -5q0 -5 1 -6q0 1 7 -16q9 -19 9 -34q2 -60 -4 -151v0h5l3 -1l-1 -1q1 1 8 1q5 -1 16 -1h2h2h1h1h3h1q4 -1 8 0h2l2 1l3 1
h3l10 -2l7 -1l2 -2q1 0 1 -4l1 -1l1 -1l-1 -4q0 -7 -1 -9l-3 -2l-3 -1v0l-2 -1h-1v-1h-1h-1q-5 -1 -39 -1l-1 -1h-2h-3h-1h-3h-2h-3q-1 1 -5 1h-6q-1 1 -3 1h-3q-1 -8 -1 -17v-25q-1 -10 -1 -21q-3 -48 -3 -72q-1 -11 -1 -25v-5v-6v-5v-4q1 -9 1 -37v-43q0 -22 1 -29
q1 -5 1 -22q-1 -16 0 -19l1 -2l2 -4l2 -2l3 -13q1 -3 0 -4q-2 -2 -1 -4l2 -1q0 -4 3 -13v-2q0 -1 -1 -1l-2 -1q4 -1 5 -8q2 -11 5 -17l1 -2v-1q0 -1 1 -1h1l1 -5q3 -5 7 -6l4 -2q2 -1 3 0q1 0 1 -1q24 -6 25 -2l4 8l3 6l6 5q2 2 6 -2l5 4l2 2l3 2q1 -2 6 -7q7 -6 8 -14
q0 -7 -6 -16z" />
    <glyph glyph-name="u" unicode="u" horiz-adv-x="406" 
d="M301 -15l-4 1q-1 0 -1 1t-1 1h-1v1h-1q-1 0 0 1l-1 1q-7 8 -12 35l-1 1q-1 1 -1 3v2v1q-1 1 -1.5 2.5t-0.5 3.5q1 0 1 1q-16 -15 -41.5 -23t-53.5 -8q-23 0 -46 6q-10 4 -25 17l-17 17l-2 4l-2 3q-8 15 -18 38q-1 -1 -1 0l-4 12q-20 88 -25 146l-1 27q0 19 -1 21l-1 5
q0 6 1 9l1 4q0 39 5 82q3 28 7 48.5t6 26.5q1 0 1 2v2q0 1 1 1l1 -1v2q0 2 2 4h2q0 5 4 5l1 1h3q11 0 13 -2q0 -1 4 -3q4 -1 4 -4h1h2l1 -2v-3q4 -3 7 -7t6 -7q2 -6 2 -7q0 -26 -3 -62q0 -3 0.5 -11.5t-0.5 -18.5q-2 -25 -2 -68q0 -20 4 -48l4 -30q9 -63 15 -82l3 -10
q0 -2 2 -6l2 -3q2 -5 5 -11.5t6 -11.5l4 -12l5 -10l5 -10q5 -9 12 -15q5 -6 13 -8q3 -1 8 -1q12 0 23 6.5t16 17.5q1 1 2 5q0 4 1 6v4l12 26l2 4l2 4v2l5 18l2 5l3 -1q-1 1 -1 6q0 7 2 12q4 28 4 47l1 6l-1 6v5q-2 2 0 5l1 8q0 6 1 8l1 14q0 6 -2 22q-1 2 -1 7q0 11 -2 19
l-2 8l-1 26q0 22 3 58l4 51q2 6 4 20q0 6 7 6h2l3 12q0 7 2 11v3q3 -3 13 -8q17 -11 20 -16q4 -6 5 -17.5t2 -16.5q2 -12 2 -11v-6v-6h1v-6v-6h1q1 -1 1 -6q-1 -2 -1 -5q6 -52 6 -120q0 -23 -2 -81l1 -3l-1 -2q3 -13 1 -21q-2 -6 -2 -7q0 -2 2 -4v-4v-9q0 -9 1 -11v-1v-1v-2
h1l4 -28l-2 -15q0 -1 0.5 -0.5t1.5 -0.5l2 -2q2 -2 2 -7q0 -1 -1 -1q-1 -1 -1 -3h1l1 -4v-5l-1 -2h-3q5 -2 4 -6q-1 0 -1 -1v-3q0 -3 2 -11q1 0 1 -1v-1q0 -1 1 -1v-2v-2l-1 -2q0 -4 3 -7q0 -1 1 -1l1 -2l2 -2h1q1 -1 1 -4q0 -5 -2 -9.5t-3 -6.5l-2 -2q0 -2 -9 -3l-3 -2
l-1 -2l-13 -2q-15 -2 -20 -1z" />
    <glyph glyph-name="v" unicode="v" horiz-adv-x="340" 
d="M319 482l1 -5v-1q-1 -1 -1 -3h1v-2l-1 -2l1 -1v-2l-1 -2q-5 -39 -49 -194v-5q-3 -10 -4 -14l-5 -14l-3 -11l-3 -13l-4 -14q-2 -4 -5 -13l-20 -60l-5 -13q-2 -4 -5 -13q-7 -24 -8 -29l-9 -26q0 -2 -1 -3q-4 -14 -10 -22q-5 -5 -8 -5q-39 1 -57 26q-8 11 -11.5 18t-6.5 17
l-2 7q-4 8 -4 14q-1 7 -4 14l-3 7q-2 6 -1 8q0 2 -1 3q-1 2 -2.5 9.5t-5.5 24.5h-1l-1 10l-10 44l-15 66l-3 18l-4 16l-2 3v6v5q-6 28 -11 64q-6 30 -6 33q-1 5 -3 14t-3 19l-1 10l-1 3q-1 1 -1 3h1h1l-1 4q-1 1 -1 3l1 2l1 1l1 11v2v1q1 2 8 5.5t8 1.5q1 -1 5 -2q3 -1 7 -5
q0 -1 1 0t1 0q1 0 3 -2l2 -3q5 -5 10 -8q13 -12 16 -18q17 -48 27 -106l6 -37q7 -19 9 -37l20 -91q1 -1 1 -2.5t1 -2.5q0 -5 3 -11l1 -4q3 -10 12 -33l3 8l5 10v2q1 -4 2 -4t1 3q-1 9 9 40q15 41 28 93l3 10q2 6 4 15q0 2 2 8l4 12l3 10q8 23 12 43l2 8q2 7 2 18v7
q6 25 17 51l8 16l4 3q0 1 8 -1l2 1h1l2 1q-1 1 9 -2q11 -3 20 -8q3 -3 4 -8z" />
    <glyph glyph-name="w" unicode="w" horiz-adv-x="506" 
d="M486 469l1 -10q0 -2 -1 -3q-1 -3 0 -4h1v-3l-1 -3q1 0 1 -1v-3l-1 -3q-1 -39 -29 -157v-3l-2 -9l-3 -10q0 -5 -1 -8t-1 -8l-6 -18q-2 -2 -12 -43l-3 -10l-3 -11q-4 -21 -9 -54.5t-6 -58.5q-3 -50 -53 -65q-4 -1 -10 -1q-19 0 -30 21q-6 13 -8 18t-3 6t-1 5v3
q-3 11 -11 29v-1h-1l-2 10l-15 49q-7 18 -17 53q-1 12 -7 34l-2 3v6v4q-4 17 -5 31q-1 -1 -1 -4l-3 -12l-3 -12l-9 -31l-5 -15q-1 -1 -1 -3t-0.5 -3.5t-1.5 -2.5t-1 -3t-2 -8v-1v-1l-1 -2l-5 -14h1v-1l-2 -4q-7 -22 -10 -46l-3 -13v-2v-2l-1 -2q-3 -9 -4 -16q0 -4 1 -7
l1 -14q-2 -3 0 -5l-8 -5l-1 -3l-1 -3v-1h-1v0v-1v-1h-1l-1 -1q-1 -4 -3 -4q0 -1 -1 -1l-6 -1q-4 -1 -6 0l-3 1l-2 1q-6 -2 -8 -2t-7 3l-5 4q-1 0 -1 2q0 1 -1 1l-1 -1v2l-1 2l-1 -1v1l-1 2q-13 13 -34 66l-2 1q0 2 -1 4.5t-2 3.5q0 2 -1 3q-3 5 -3 8t-1 4q0 6 -1 10l-3 10
q-1 1 -1 6q0 3 -1 4q-1 5 -4.5 14t-4.5 11q-10 26 -11 32.5t-2 10.5q-3 11 -3 14q-3 3 -3 6q-1 1 -1 4l1 2q-1 1 -1 4q-2 5 -3 5l1 2v2l-3 16h-1h-1l1 6q-7 26 -5 21l-8 35q0 -1 -2 11l-2 9l-2 1q0 3 1 4q0 2 -1 2l-5 40l-2 22q-3 12 -3 23v8q2 0 0 2t0 2h1v3q-1 1 -1 3l1 1
l1 1q2 8 3 8v1v2q17 6 17 5l4 -2q6 -2 7 -4l1 1q2 0 3 -2l2 -3l8 -5q10 -5 15 -13q4 -12 8 -30t7 -36l3 -22l6 -21q2 -9 5 -23t6 -24v-3q0 -3 2 -5l1 -2l9 -33q4 -17 7 -28l4 -29q0 -1 3 -3l2 -3q4 -6 5 -12q0 -2 -1 -3q-2 -2 0 -4l2 -1l2 -6l2 -8v-3v-2l-3 -1q5 -2 6 -11
l2 -8l4 17q0 2 1 3v2q1 1 1 3v2l18 61l11 30q1 1 1 3t-1 3v2q3 11 4 14l2 3l2 4v1l2 8l3 8l2 4h2l-1 4q0 3 3 9q7 15 8 28q0 2 1 3l1 2v2v3q0 3 3 6q2 8 2 13v2v2v1v3l-1 2q0 4 5 19l4 9q2 2 2 3q1 1 7 0l2 2l2 2q22 -6 23 -7q2 -2 3 -5l2 -4l-1 -1v-1q0 -1 1 -1v-1v-1h1v-2
l-1 -1q0 -9 -1 -15q13 -8 15 -16q6 -16 12.5 -45.5t9.5 -53.5q2 -19 5 -33t10 -38q11 -47 20 -72v4l-1 3q3 20 5 30l4 8q1 1 1 3t1 4v4l8 35l4 9q0 -3 2 -3t0 2v4q0 10 5 25q10 29 16 62l2 7l1 6v4q0 4 1 6q1 1 3 7q1 2 1 4t1 3q5 17 6 32l2 12v8l-1 5q2 20 12 52l8 27l3 8
q2 3 10 2l3 5l3 6q2 -1 4.5 -2t6.5 -2q15 -5 19 -11q4 -3 5 -14z" />
    <glyph glyph-name="x" unicode="x" horiz-adv-x="356" 
d="M293 -22l-5 3l-1 1l-2 3v0l-2 2l-1 1l-1 -1l-1 2l-1 2q-21 21 -58 81l-2 1l-3 6l-6 10q-1 2 -4 9q-1 3 -3 5l-11 27l-2 7l-3 6l-8 16q-2 4 -3.5 8t-3.5 7l-1 -2l-1 -3q0 -1 -1 -1l-2 -2q-7 -16 -8 -18v-1h1l-3 -5q-5 -8 -26 -58q-2 -5 -5 -10t-4 -8l1 -3l-2 -2
q-2 -2 -2 -3q-4 -7 -8.5 -15.5t-9.5 -17.5q-1 -1 -1.5 -3t-2.5 -5l-5 -8l-11 -18q0 -2 -4 -5v-1l-1 -2q0 -1 -1 1q-1 0 -1 -2v-2h-2q-3 0 -5 -3q-2 -2 -3 -2l-2 -1v0q-4 0 -9 2t-7 3q0 2 -2 4q-3 3 -3 5q0 1 -1 1t-1 1v2l-1 2q0 1 -0.5 3.5t-2.5 5.5q-6 11 -5 15q1 7 7 20.5
t9 19.5l9 18q6 14 10 18l4 12q2 8 4 10q1 2 22 50q0 2 1 3t2 2.5t1 3.5v2l34 73l4 7q-1 1 -1 2.5t-1 2.5l-3 6v2v2l-7 18h-1l-1 5q-2 11 -23 59q-1 5 -3 10.5t-4 8.5l-2 2v3l-1 2q-2 8 -5.5 17.5t-6.5 19.5q-1 2 -3 7.5t-4 10.5q1 -1 -2 9q-5 10 -5 17v2l-1 1q-1 0 0 1l-1 2
v2q-1 0 0 1v1v7l1 1v1q2 2 6 4.5t5 1.5h3q4 0 6 -2v0l2 1l2 -1l1 -2l16 -7q2 -1 4 -6q12 -18 28 -58l7 -20q2 -6 5 -10l3 -11q3 -5 11 -26q3 -9 8 -23q1 1 5 9l5 10l5 5l2 -1v2q0 5 7 15q16 24 20 36q0 1 3 4l2 4q0 3 2 5q0 1 3 4l2 2t1 2q5 6 10 18q3 3 3 8q1 0 1 4v4
q10 15 22 27q4 4 13 14q4 4 6 4l7 -3l4 3l4 2q0 -1 8 -9q9 -9 11 -13q1 -1 0 -8l-1 -8l-1 -1l-1 -2h1v-1l-1 -1l-1 -2v0v-1l-1 -1l-1 -2q-3 -9 -44 -88l1 -3q-5 -5 -7 -10q0 -5 -3 -8q-5 -5 -7 -11l-8 -13l-6 -10l-4 -6l-4 -6q-1 -2 -4 -9.5t-11 -22.5l-6 -16l-4 -8l1 -2
q5 -7 5 -12q1 -5 5 -13q2 -12 2 -11l6 -6l1 -1q2 -2 4 -7t3 -8q1 -2 1 -5t1 -5l2 -2q0 -3 3 -8l5 -10l1 -6l-2 -1q6 -2 9 -14q10 -24 17 -35q1 -1 2 -3.5t1 -3.5l4 -4l4 -9q1 -4 10 -17q5 -4 5 -6q2 -1 6 -5t17 -28l7 -16l3 -7q1 -1 -5 -4l2 -4l1 -5l-14 -6q-3 -1 -8 -1
q-4 0 -9 4z" />
    <glyph glyph-name="y" unicode="y" horiz-adv-x="388" 
d="M66 -166l3 -6v-2l1 -2h1v-2l1 -3h1q0 1 1 1q0 -2 2 -3v-2q15 -17 36.5 -29t40.5 -12q12 0 20 5l2 2q8 8 8 10l7 8q0 2 4 6l3 5q8 11 15 28l7 15q8 23 13 43.5t8 56.5q1 13 2.5 23.5l2.5 17.5q-9 -1 -18 -1.5t-19 -1.5q-5 -1 -16 -1q-22 0 -59 11q-9 3 -14 6t-12 10
l-17 17l-1 3l-2 3q-14 22 -19 36h-1l-4 12q-10 30 -13.5 57.5t-4.5 50.5t-1 32q0 13 1 25l1 20l-1 5q-1 4 0 8q1 2 1 5q1 22 7 79q1 10 2.5 21t2.5 16q1 3 0.5 6.5t0.5 8.5l2 17l2 8v2v3l1 -1q1 1 1 3q-1 2 1 4h1l2 4q0 2 1 2l1 2q1 0 8 3t10 0l3 -2q1 -1 5 -4q0 -1 1 0h3
l1 -7l7 -7q9 -10 9 -20q0 -41 -5 -111q-3 -42 -3 -62q0 -21 1 -35q5 -71 13 -102q0 -4 3 -9l3 -4l1 -4q18 -46 36 -63.5t40 -17.5q14 0 39 7q-1 1 -0.5 2t0.5 2v4l-1 -1q-7 0 -6 3q0 2 1 3t1 3l-1 2q1 2 1 11q0 11 1 16v8h4q-2 4 -2 11l1 21q1 26 1 85v9v10v6v9v7l1 16
q1 9 1 26t-1 25q-1 2 -1 10v11q0 7 -1 11q-2 8 -2 10q-2 38 5 82q3 17 4 26.5t2 12.5l2 14q2 3 6 3l2 3l3 1v2l3 1v1l3 7q4 -1 14 -6.5t14 -9.5q5 -5 6 -19l2 -12v-1v-1q3 -4 3 -11q1 -15 2.5 -50t0.5 -61q-1 -15 -0.5 -28t0.5 -18l1 -21l1 -22q0 -31 1 -56
q0 -22 -0.5 -33.5t-0.5 -17.5l1 -5v-6q0 -4 1 -6v-6q0 -62 -11 -150q-2 -15 -16 -68q-2 -2 -2 -13v-3q-3 -16 -10 -28l-4 -6q-2 -3 -4 -7l-1 -3q-6 -14 -16 -29l-8 -7l-2 1q0 -10 -14 -21q-30 -22 -45 -32l-9 -4q-2 0 -3 -1l-4 -3l-17 -3q-9 0 -19.5 -1t-15.5 0l-16 2
q-2 1 -5 1q-2 0 -11 3q-19 7 -35.5 19.5t-23.5 24.5q-15 23 -14 42q0 6 2 13.5t7 6.5h2l2 2q0 4 2 6l6 7q4 -4 14 -9l10 -10q1 0 8 -7z" />
    <glyph glyph-name="z" unicode="z" horiz-adv-x="333" 
d="M296 6l-3 -2h-1h-1v0h-1h-1v0q0 -1 -1 0h-1q-9 -2 -47 -4h-3h-3h-2q-1 -1 -3 -1l-2 1h-3q-4 0 -7 1h-6q-2 0 -3 1h-4h-9l-7 -1h-8q-4 -1 -9 -1t-9 1h-9h-2l-2 -1l-2 1h-2q-3 0 -4 -1h-1h-1l-1 1h-9v-1l-3 1h-5q-13 0 -24 -1l-4 1q-4 0 -5 -1h-1h-1h-1q-4 0 -16 2v0l-4 -3
l-5 3h-1q-3 0 -5 1h-5q-2 0 -2 1h-1h-1v0h-1h-1l-1 1q-3 2 -3 4v0h-1q-4 7 -1 8l1 2l2 5v2h1v0v7v1l1 2h-1v0l1 1q1 1 1 3h-1l1 1q1 1 1 4q6 24 34 87v3q2 2 3 5l2 4l2 6q0 3 1 4q2 2 3 5l3 3q7 18 13 25q1 3 3 5.5t3 5.5t3.5 7.5t4.5 10.5l5 14q2 2 6 14l7 17l9 18l7 15
q1 1 1 4l1 2l2 4l2 3l2 4l2 7q0 1 3 1q4 10 8 17h-1l3 3l24 51l4 8l4 6v2l2 2l1 4l16 24h-2h-2q-1 -1 -3 -1l-2 1h-3l-13 2h-3q-1 1 -3 1h-5h-6q-2 -1 -5 -1h-7q-4 -1 -9 -1h-9h-9h-2l-2 -1h-2l-1 1h-5h-1v0h-2h-9h-2q-2 1 -11 1q-10 0 -18 -1h-5h-5v-1h-2l-1 1q-10 0 -17 1
l-4 1h-5l-9 2q-2 0 -3 1h-1h-1v0q0 1 -1 1q-1 -1 -1 0v1h-1q-2 0 -2 3h-1q-4 8 -1 9q0 2 3 8v1q0 1 1 1h1l3 4q3 6 5 6l17 1h11l10 -1q3 0 5 1h5h12q10 0 12 1h2h1h2h1q3 1 12 1t14 1h10l19 -2l2 1l2 1q3 2 9 2q1 0 2 -2l2 -1l1 1h5q4 0 5 -1h3v-2q2 2 8 1t19 -1h2h2l1 1h2
h2l2 -1q5 -1 9 0h2l4 2l2 1q5 0 16 -3q6 -1 8 -3l2 -2q2 0 0 -6l2 -1l1 -1q0 -3 -1.5 -9t-3.5 -12l1 -1q2 -4 0 -6q-2 -9 -20 -44q-7 -9 -9 -14q-5 -8 -7 -17q-1 -4 -4 -9t-6 -12l-5.5 -11t-4.5 -10l-1 -1q-2 -4 -2 -6t-1 -3q-4 -11 -14 -33t-15 -31l-18 -33q-1 -1 -1 -3v-5
v-1q-1 -7 -6 -16l-3 -5q-1 0 -3 -3v-2q-2 -2 -4.5 -8.5t-4.5 -10.5l-4 -5l-2 1v-2q0 -7 -5 -13q-8 -13 -17 -36l-3 -6l-1 -6l-3 -3l-3 -5q-4 -9 -7 -18q0 -2 -1 -3q-1 -7 -1 -9v-4l-5 -10h4q10 0 12 1h2h1h2h1q3 1 12 1h14h11l18 -2q1 0 3 2l2 1q3 3 8 0h3q0 -1 2 -1h1h5h5
l3 -1v-1q2 2 8 1t19 -1h2h2l1 1h2q2 0 3 -1h1q5 -2 10 0q0 1 2 1h2l2 1l1 1q1 1 3 1q4 0 7 -1l6 -2l9 -2l3 -2q1 0 0 -4l2 -2l2 -1l-1 -14q-1 -1 -1 -2.5t-1 -2.5z" />
    <glyph glyph-name="braceleft" unicode="{" horiz-adv-x="325" 
d="M49 363h5q4 0 4 1q0 3 2 3q4 0 5 1l14 4q4 2 14 16h2l1 2q1 0 1 2l1 1q4 5 5 11v2q0 4 2 6l1 2q0 1 0.5 2.5t1.5 2.5q7 15 8 33q2 15 6 18q-1 1 -3 1v6q0 10 3 25l1 3q1 4 -1 6q-1 2 0 6q0 12 2 22l2 4l3 9q0 9 -1 16v17v20q4 79 9 103q0 2 1 3t1 4v4q1 1 1 3
q12 44 20 58q4 9 16 18q22 15 47 15q20 0 37 -6q4 0 18 -14l2 -1l2 -2l-1 -1q2 -1 4 -5q1 -1 1 -3q1 -1 -1.5 -3t-3.5 -3l-1 1h-2l-6 1h-2h-1l-2 1l-1 1l-1 -1l-2 2h-1l-9 2l-12 2q-9 0 -12.5 -4t-4.5 -15l1 -1v-2h-1q-2 -2 -2 -10q-10 -28 -12 -48l1 -6h-1l-3 -21l1 -2
q2 -1 0 -3q0 -2 -1 -3l-1 -11v-4q1 -2 1 -6q0 -3 -1 -4q-1 -2 -1 -6l-2 -52q0 -12 -4 -48l-4 -24l-2 -24q-1 -2 -1 -9v-9q-2 -22 -5 -35l-2 -15q-1 -4 -2.5 -7l-2.5 -5q-2 -2 -3 -5l-2 -8l-2 -2q-17 -23 -42 -38l-13 -7l10 -3q17 -6 30 -18l2 -1l3 -2v-2q2 -2 6 -7.5t5 -8.5
q5 -12 17 -62l2 -6h-1q1 -6 1 -11t1 -10v-2l1 -2v-3v-4v-6v-3q1 -2 1 -6q0 -3 -1 -4v-5v-19q1 -11 1 -25q0 -11 -1 -20v-19l-1 -37q0 -4 1 -8t2 -6l4 -26q1 -1 1 -2.5t1 -2.5q2 -8 2 -9v-4q0 -3 1 -5t1 -5v-2q8 -32 35 -65q0 -1 1 -1l1 -1l1 -1h1q1 0 1 -1h1h1q1 -1 5 -1
l5 -2q3 -3 6.5 -7t4.5 -8q0 1 -1 0t-3 -1q0 -1 -2 -1t-2 -1q0 -4 -2 -4h-7h-4l-18 2q-21 3 -38 15q-1 0 -3 2t-3 5l-3 3l-3 3q-1 0 -6 6l-9 10q-7 7 -7 9l-3 3q0 2 -1 3l-4 7l-9 23q-7 17 -9.5 25.5t0.5 14.5l-2 -1l-3 7l-3 25l1 2l-3 6q-1 1 -1 5l-1 12l1 9l1 2l2 10
q-4 35 -4 45v41v40v3l1 2v3v3q0 7 -4 38q0 4 -1 7v6q-4 14 -8 21t-16 12l-7 4l-6 4l-1 1h-3v1v0l-4 3l-2 1l-4 1q-7 0 -11 4q-1 2 -6 15zM270 -93v0v0z" />
    <glyph glyph-name="braceright" unicode="}" horiz-adv-x="295" 
d="M254 329l-4 -1l-2 -1l-4 -3v0v-1h-3l-1 -1l-6 -4l-7 -4q-12 -5 -16 -12t-8 -21v-6q-1 -3 -1 -7q-4 -31 -4 -38v-3v-3l1 -2v-3v-40v-41q0 -10 -4 -45l2 -10l1 -2q1 -2 1 -9t-1 -12q0 -4 -1 -5l-3 -6l1 -2l-3 -25l-3 -7l-2 1q3 -6 0.5 -14.5t-9.5 -25.5l-9 -23l-4 -7
q-1 -1 -1 -3l-3 -3q0 -2 -7 -9l-9 -10q-4 -6 -6 -6l-3 -3l-3 -3q-1 -3 -3 -5t-3 -2q-17 -12 -38 -15q-17 -3 -22 -2h-7q-2 0 -2 4q0 1 -2 1t-2 1q-2 0 -3 1t-1 0q1 4 4.5 8t6.5 7l5 2q4 0 5 1h1h1q0 1 1 1h1l1 1l1 1q1 0 1 1q27 33 35 65v2q0 3 1 5t1 5v4q0 1 2 9q1 1 1 2.5
t1 2.5l4 26q1 2 2 6t1 8l-1 37v19q-1 9 -1 20q0 14 1 25v19v5q-1 1 -1 4q0 4 1 6v3v6v4v3l1 2v2q1 5 1 10t1 11h-1l2 6q12 50 17 62q1 3 5 8.5t6 7.5v2l3 2l2 1q14 12 30 18l10 3l-13 7q-25 15 -42 38l-2 2l-2 8q-1 3 -3 5l-2.5 5t-2.5 7l-2 15q-2 13 -5 35v9q0 7 -1 9
l-2 24l-4 24q-4 36 -4 48l-2 52q0 4 -1 6q-1 1 -1 4q0 4 1 6v4l-1 11q-1 1 -1 3q-1 2 0 3l1 2l-3 21h-1l1 6q-1 20 -12 48q0 8 -2 10h-1v2l1 1q-1 11 -4.5 15t-12.5 4l-12 -2l-9 -2h-1l-2 -2l-1 1l-1 -1l-2 -1h-1h-2l-6 -1h-2l-1 -1q-1 1 -3.5 3t-1.5 3q0 2 1 3q2 4 4 5
l-1 1l2 2l2 1q14 14 18 14q17 6 37 6q25 0 47 -15q12 -9 16 -18q8 -14 20 -58q0 -2 1 -3v-4q0 -3 1 -4t1 -3q5 -24 9 -103v-20v-17q-1 -7 -1 -16l3 -9l2 -4q2 -10 2 -22q2 -4 0 -6t-1 -6l1 -3q3 -15 3 -25v-6q-2 0 -3 -1q5 -3 6 -18q1 -18 8 -33q1 -1 1.5 -2.5t0.5 -2.5
l1 -2q2 -2 2 -6v-2q1 -6 5 -11l1 -1q0 -2 1 -2l1 -2h2q10 -14 14 -16l14 -4q1 -1 5 -1q2 0 2 -3q0 -1 4 -1h5q-4 -13 -6 -15q-4 -4 -11 -4zM50 -108v0v0z" />
    <glyph glyph-name="exclamdown" unicode="&#xa1;" horiz-adv-x="242" 
d="M143.5 530q3.5 -5 4.5 -7v-1l1 -2h1v-1v-3v0h1q1 0 1 -2v-2q9 -28 15 -94l2 -2v-6v-6v-5q1 -2 1 -5q0 -4 -1 -6v-6q0 -2 0.5 -5t-0.5 -8v-14q-2 -6 -2 -13q0 -12 2 -21l1 -16l1 -34q1 -2 1 -9q0 -8 -1 -13q-1 -9 -1 -19v-3q1 -1 1 -4t-1 -5v-3v-5q0 -3 1 -5v-2l-1 -2
l-1 -1q-1 -9 -1 -19v-1h1l-2 -6q-1 -7 -1 -62q0 -6 -1 -11q-1 -4 -1 -9l1 -2q0 -4 -2 -6l-4 -35q-1 -2 -1 -4.5t-1 -4.5l-1.5 -10.5t-1.5 -7.5l-3 -16q-1 0 -1 -2v-2l-1 1v-3q0 -1 -2 -3h-1l-2 -2q0 -1 -2 -3q-1 0 -1 -1l-1 -1q-1 -1 -9 -1q-7 0 -8 1q0 1 -4 2l-4 4h-2h-1
l-1 2l-1 1l-7 7q-10 8 -10 12q0 45 2 58l2 22v10v11q2 14 2 52v2v3v4v2q-2 20 -1 42q1 16 0.5 25t-0.5 10l4 39l-2 8l-2 2q-2 10 -1 17q0 4 1 5q2 2 2 5l-2 2v9v11l1 6h2q-4 4 -2 17v10q0 9 -2 29v3q0 3 -1 4l-1 6v4l1 5q0 4 -2 18q-2 2 -2 7q-1 3 -6 8l-1 9q0 5 2 23l2 16
q1 1 0.5 3t0.5 3q0 2 9 3l2 4q2 3 3 3q4 -1 10 -1l8 1q9 0 15 -3q3 0 6.5 -5zM114 604h-1v-1h-1v0h-1h-2v0v-1l-1 1v-1h-1h-1q-11 -1 -19.5 8.5t-11.5 20.5l-1 2v1v2v0q0 1 0.5 1.5t-0.5 1.5t-1 4l-1 1v2v3l-1 1q-1 1 -0.5 1.5l0.5 0.5v3l1 2l2 11l2 2l2 2q4 10 6 12.5
t7 5.5l10 2h1h1h2l2 1h1h1h4v1v0h7q3 6 5 6.5t3 0.5l2 1h1h1v1v-1v0v1q1 0 1 -1v0q5 0 14 -10v0l1 -1h1v0v0q5 -1 10 -6l1 1v0l3 -4q10 -27 9 -43l-4 -13l1 -2l-4 -3l-7 -4l-1 -1l-2 -4l-1 -2q-2 -2 -3 -2v0v0h-1v-1h-1h-2h-3v0h-1l-10 2v-1h-1v1v-1h-1h-1q-1 -1 -1.5 -0.5
t-0.5 1.5h-1l-1 1q-6 -2 -7 -1h-1v-2q-3 -3 -4 -3z" />
    <glyph glyph-name="cent" unicode="&#xa2;" horiz-adv-x="467" 
d="M386 192q0 -4 -3 -10l-4 -8l-2 -2q-2 -2 -2 -3h1l-3 -3l-1 -2h1v-1q-1 0 -3 -3l-1 -2q-20 -26 -55 -44.5t-74 -23.5l-2 -11q0 -3 -1 -5t-1 -5v-3v-4q0 -2 -1.5 -6t-2.5 -6l-3 -24v-4v-6q0 -3 1 -5l1 -5q0 -11 -9 -39q-6 -20 -7 -21l-3 -7q-1 -1 -10 0l-3 -5l-3 -4l-13 4
q-12 4 -18 9q-2 1 -4 10l-2 8v2q1 1 1 3h-1h-1l1 2v3h-1q0 2 1 3v2q-1 31 15 121l-1 2q0 1 2 7v2q-3 1 -9 5q-28 17 -43 32q-8 8 -16 20q-37 54 -37 102q0 11 1 17q3 29 19 66l2 6q1 7 7 14l3 4l6 11l4 7l3 3l1 2q7 9 21 25l-1 1l7 6q51 43 81 56l27 9l3 1l8 1q6 1 17 1v1
q2 5 4 7q3 9 17 43q1 1 4 11l9 22l5 12q1 3 4 6l1 2q0 2 1 3h1l2 4h1l1 1l3 4q2 2 3 2l2 1v1q4 0 9.5 -1t5.5 -3l3 -3q2 -4 2 -6q0 -1 2 -1h1v-3v-3l9 -18q1 -4 0 -8q-10 -41 -22 -71l-4 -12l2 -1q30 -14 36 -24q0 -1 2 -3l3 -2l-1 -1q1 0 6 -5v-2v-2l5 -10l1 -2v-2
q0 -2 -4.5 -7t-6.5 -4q-8 0 -13 4v-1q-1 -1 -1 0l-6 3l-13 4q-9 1 -13 5l-9 8l-6 -19q-10 -28 -12 -42q-2 -2 -2 -7q-1 -1 -1 -4v-4l-13 -49q-10 -34 -12 -45q-5 -21 -10 -34q-2 -4 -5 -13v-4q0 -4 1 -6v-3q-3 -17 -5 -22q-1 -4 -2 -5l-3 -6l1 -3q-5 -22 -6 -26l-3 -6h-3
q1 -1 1 -5q0 -6 -3 -17q-1 -1 -1 -5h1q6 -2 10 -2l6 1q7 0 11 2q11 5 18 13l6 7l3 6l2 3q5 10 23.5 31t23.5 24l3.5 3.5t5 2.5t5.5 -2l5 4q1 0 3 2l2 1l6 -9q5 -8 5 -13v-3zM233 453q-29 -21 -48 -48l-5 -6l-4 -8q-28 -57 -31 -98q-2 -38 -1 -47q0 -1 2 -3l4 -7l6 -18l1 -6
q-1 -3 0 -6l2 -1q7 -14 13 -24l3 -8l-1 -1q1 0 11 -10l2 -2q1 4 4 14l3 9l3 8l5 24q2 16 3 20q3 14 6 26q8 34 11 45l7 21q0 3 1 5q0 5 3 11q1 1 1 3l2 7q0 4 1 5q0 3 2 5l1 2q6 20 7 24l-1 1l3 6q8 22 22 72q-20 -2 -38 -15z" />
    <glyph glyph-name="sterling" unicode="&#xa3;" horiz-adv-x="583" 
d="M84 38v0v1v1v0v2q0 2 4 10l-1 1l1 1v0v1l1 1l2 1l1 1v0q2 0 2 3v2v2q0 1 2 3l1 2v1h1v0v2h1l1 2q2 2 3 7h1v2l-1 1h1h1l4 3h1l1 1l2 1q1 1 3 1h1v0q1 1 1 3l2 2l1 4l1 4l2 2v0q-1 0 -1 1l1 3l2 2q34 92 35 139l-2 2v9l-3 17l-1 6q-1 1 -1 8q-2 10 -2 9q-3 14 -11 41
l-4 13h-9h-4h-5l-1 -1q-1 0 -1 1h-2l-17 2q-1 1 -4 1t-4 1q-3 0 -5 1q-4 0 -5 1h-2q0 1 -1 1h-1v0h-1q-1 0 -1 1v1l-3 2h-1v4v4l2 2l2 2v1v0l2 1q3 3 6.5 5.5t6.5 2.5l12 -1q6 0 11 -1q4 -1 9 -1h4l-3 5l-11 24q-18 41 -23.5 64t-4.5 61q0 14 1 15q0 4 1 6.5t2 4.5q1 1 1 3
q1 7 2.5 11.5t2.5 6.5t1 5l3 4l1 2q8 15 21 37h-1l8 11q23 21 51.5 38t50.5 22q11 3 35 4l4 1h7l4 -1q39 -1 65 -6q20 -4 31 -8t24 -14q13 -9 15 -13q0 -1 3 -3q2 -2 2 -3h-1q0 -1 3 -3q2 -3 3 -3v-2q-1 -1 0 -3l3 -12v-2l1 -2q0 -3 -6 -7.5t-7 -3.5l-5 2q-6 2 -8 4
q-1 1 -1 0q-1 -1 -1 0q-1 0 -3 2t-3 2q-5 1 -13.5 4.5t-11.5 6.5q-19 22 -41 28.5t-72 6.5q-18 0 -31.5 -6t-26.5 -20q-15 -17 -20 -28l-3 -5l-3 -5l-3 -10q-11 -42 -11 -73q0 -16 3 -31q10 -47 11 -52q0 -2 3 -4q6 -8 6 -9q5 -8 11 -25l2 -8q0 -1 2 -7l2 -3q1 -1 4 -9
q3 -1 13 -1l4 1q2 1 8 1h3q0 -1 2 -1h1l4 1q4 0 6 -1h2v-1q1 1 8 1l9 -1l9 1h3h2l1 1h1q2 0 3 -1h1q6 0 9 1h2h2l2 1l2 1h3q7 0 12 -1l8 -2q1 -1 3 -1v-4l2 -1l2 -1l-3 -14q-1 -2 -3 -3t-3 -1h-2v-1h-1h-1h-1h-1q-14 -3 -44 -4h-1h-2h-3h-2q-1 -1 -3 -1l-2 1h-3h-7h-6
q-2 0 -3 1h-3h-9l-7 -1h-6q1 -2 1 -5l-2 -1q8 -7 12 -30q8 -45 9 -76l-1 -10l-1 -6v-6q0 -5 -1 -6l-6 -19l-12 -35l-3 -6q-4 -7 -4 -14q-1 -2 -1 -4t-1 -3q-6 -13 -23 -37l10 2q11 3 17 3q19 2 40 1h2h2h3h2q24 -4 54 -15q3 -1 8.5 -4.5t14.5 -8.5l6 -1h1l11 -4l3 -2l2 -2h2
l6 -3l6 -2l3 -2v-2h1l10 -2q11 -4 25 -4h2h3h2h2h4h3q8 2 14 4l5 2l4 3l2 1q3 3 15 8q10 4 10 5q2 1 12 7q1 1 4 1l6 3q1 1 4 -3l4 2h2l3 1l2 -6q2 -7 1 -13q0 -3 -7 -10l-4 -3l-2 -1l-2 -1v0q0 -1 -1 -1l-2 -1q-1 -1 0 -1q-2 0 -3 -1l-1 -1q-34 -19 -85 -25l-2 -1h-4h-5h-4
h-4l-9 2q-2 0 -21 4l-5 2l-4 1l-25 7q-17 5 -25 9l-12 6l-10 5q-3 0 -5 2l-2 1l-2 1l-6 2h-1q-1 0 -1 1l-1 1l-11 4l-3 1q-13 5 -25 5q-8 0 -12 -1q-6 0 -12 -2l-1 -1h-2l-2 -1q-15 -6 -24 -12q-6 -3 -8 -5l-12 -8l-5 -8q0 -1 -5 -3l1 -3l-1 -2q-1 0 -1 1l-2 -1h1l-1 -1
q-2 -2 -3 -2l-1 2q2 -3 -1 -3q-3 -1 -4 -4h-1v-1v-1h-1h-1l-1 -2v-1h-1v-2l1 -1q0 -2 -5 -2h-4l-1 1q-1 0 -5 4h-2l-1 1l-14 15z" />
    <glyph glyph-name="yen" unicode="&#xa5;" horiz-adv-x="459" 
d="M384 402l-1 -1h-1v-1h-1h-1v0q-4 -3 -20 -4l-1 -1h-1h-1l-1 -1h-1q-1 0 -1 1h-2h-3h-3l-1 1h-2l-7 -1q-2 -2 -7 -2h-4h-5h-1h-1h-1h-2h-1h-5v-1l-1 1l-13 -1h-2h-2v-1q-1 0 -1 1h-1q-4 0 -7 1h-2h-1q-2 -5 -8 -15q1 -4 1 -18q-1 -9 -1 -20q0 -5 1 -9l1 -9q0 -27 2 -43v0
h5h6l3 -1v-1q2 2 9 1h20h3h2l1 1h1q2 0 3 -1h2q7 0 10 1h3h2l2 1l2 1l17 -2l9 -1q1 -1 3 -1q1 -1 1 -4l2 -1l2 -2l-1 -6q-1 -9 -7 -10l-3 -1h-1h-1v-1h-1h-1h-1h-1q-11 -2 -50 -3l-1 -1h-3h-3h-2h-3h-3q-2 0 -3 1h-7h-7l-4 1q-3 0 -2 -4v-25v-18v-3l-3 -28l2 -4l2 -4
q2 -7 1 -13q0 -3 -1 -4t-1 -4l1 -1v-8v-9l-2 -4h-2q2 -2 2 -9q0 -6 -1 -16.5t0 -17.5v-2v-3l1 -2v-2v-4l-1 -4v-4q0 -6 1 -10l1 -2v-4l2 -3l2 -2v-4q0 -8 -3 -20l-5 -12l-2 -4q-1 -1 -10 -1l-2 -3l-3 -2l-13 1l-20 3l-5 6q-3 4 -4 4v2v1h-1v1v2h-1v1v2q-4 14 -6 69l-2 1
q0 3 1 5q0 3 -1 4v4q-1 1 -1 4l1 4l1 4q0 12 2 20l1 6v5q0 9 -1 16l-1 11l-3 27q0 10 1 17v14q0 3 -1 4t-1 3t1 3t1 3v4q-1 1 -1 3l-1 2l1 2h-10h-3q-2 1 -11 1q-12 0 -21 -1h-6h-4h-1h-2h-1q-12 0 -20 1q-1 1 -4 1h-5q-3 0 -5 1h-6q-2 0 -3 1h-1h-1v0q0 1 -1 1q-1 -1 -1 0
v1h-1l-3 2v0h-1v4q-1 2 0 3l1 1l2 3v1h1l1 1l9 8l19 1h13q5 -1 11 -1h6h5h15q11 0 12 1h2h1h2h1q3 1 10 1l-2 44v9v8l-1 1q0 2 1 3v2l2 33v1l-12 18h-1h-1l-2 1q-2 0 -3 1h-3q-3 0 -3 2h-5l-4 -1h-4h-5q-3 0 -5 1h-4q-1 1 -2 0v0h-1l-1 1h-2h-1q-2 1 -5 1v-1l-1 1
q-3 1 -15 1l-2 1h-3v-1l-1 1l-9 2h-2q-2 0 -2 1h-3q-3 0 -3 1h-1v1v0l-2 1v0l-1 2h-1q-1 6 0 7v1q1 1 1 3v1l1 1l4 8q2 1 10 1h6l5 -1h3h3h7h6h1h1h1l19 -1l9 -2l-1 2q-1 1 -1.5 3.5t-0.5 4.5q-4 7 -7 18q-3 9 -3 10q-1 3 -7 13l-6 10q-2 3 -6 10t-7 14q-4 7 -7 14.5
l-5 12.5l-2 3q-3 3 -3 6v2l-2 4l-2 3l-1 1v2v1q-3 10 -6 14l-1 -1v5q-9 21 -20 42q-1 1 -1 3t-1 4q-1 3 -3 5l-2 1v3v1q-2 4 -8 24l-2 6l-2 6l-1 5l-2 6v4l-1 1v1v0l1 1l-1 1v1l1 1l1 1q1 3 3 5v0v1q2 2 7.5 5.5t6.5 2.5l4 1q4 1 5 0l2 1h1l1 -1h2l8 1q10 0 13 -3
q4 -6 9.5 -15.5t9.5 -19.5l5 -14l4 -7q2 -6 3 -7l8 -17l9 -18q0 -1 0.5 -2.5t1.5 -1.5l1 -2l1 -2q6 -8 14.5 -27t11.5 -27q1 -1 10 -28q0 -1 3 -3l3 -2q4 -4 7 -12v-3q-2 -2 0 -4l2 -1l3 -6t3 -8q1 -1 1 -3v-2l-3 -1q5 -2 8 -10q5 -16 11 -24q0 -1 0.5 -2.5t1.5 -1.5
q0 -1 1 -1l2 -2v-4l1 -2q1 -5 7 -9l1 2l13 34v1l2 3v2l1 2q3 11 12 33l9 23l13 29q0 2 1 3v3v2q4 12 5 14l2 3l2 3v2q1 2 2.5 6t3.5 10l3 4h1v1q0 3 1.5 6t2.5 6q7 12 12 28l2 3q0 2 1 3v2q0 1 3 5l2 3q4 11 5 14v2l2 3v3v3q2 4 11 19q6 9 7 9l2.5 2.5t5.5 -0.5l2 2l2 1
l5 -4l7 -7q1 0 1 -4l-1 -5v-1l-1 -1q0 -1 1 -1v0v-1l-1 -1l-1 -1v-1q-1 -10 -24 -63v-2l-1 -4l-2 -4q-1 -1 -1 -3q-1 -6 -3 -8l-3 -5q-1 -2 -2 -4.5t-2 -5.5q-3 -7 -5 -9l-2 -5l-2 -5l-3 -8l-4 -10l-7 -21q-2 -7 -11 -30l-5 -14q-2 -2 -2 -6q-3 -3 -3 -5l-2 -7l-1 -2l-1 -1
v-1q-4 -7 -6 -14h1l-2 -4l-13 -31h2l2 1h6q5 0 6 1h1h1l10 2h7l8 -1l1 1h1q1 1 4 1h1q0 -1 1 -1v1h3h2l1 -1v-1q2 2 4 1q4 -1 8 0h1h1h1v1l1 -1h1q3 0 4 1v1h2l1 1h2q9 0 9 -2l1 -1q1 0 1 -4h1l1 -2v-6q0 -6 -1 -7q0 -2 -1 -3z" />
    <glyph glyph-name="brokenbar" unicode="&#xa6;" horiz-adv-x="178" 
d="M93 468q-2 0 -5 3l-4 3q-1 0 0 1v1h-1h-1v1q1 1 0 1h-1v1v1q-5 10 -5 44l-2 1q0 2 1 3v3l-1 1v3v3l1 2l2 7q0 5 1 6q0 2 1 3v3q2 3 0 9l-1 7l-1 7q-1 4 -1 10q2 8 2 17v2l-1 2l1 2v1v5l-1 1h1l1 2v8q-1 0 -1 1l2 2q1 2 1 10q0 11 -1 18q0 3 1 5v4l-1 1v2l1 1l4 16
q0 2 0.5 4.5t1.5 4.5l1 4q0 5 3 8v1h1q1 0 1 1q-1 1 0 1h1l1 1l4 2q1 0 1 1q1 1 9 1h9q0 -1 3 -1l6 -2h1l3 -1q0 -1 1 -1q1 -1 3 -1t4 -1q10 -3 11 -7q2 -6 2 -19q0 -6 -1 -9l-2 -10v-5v-5v-13q-1 -10 0 -11v-1v-2l1 -1v-2q1 -1 1 -18l-1 -17q0 -3 -4 -18l2 -2l2 -3
q2 -3 0 -8q0 -1 -1 -1q-2 -2 -2 -3l2 -1v-4q-1 -2 -1 -6q0 -3 -1 -2h-3q4 -1 2 -8q-2 -12 -1 -18v-2v-1q0 -1 1 -1v-2q0 -1 -0.5 -2.5t-1.5 -1.5q0 -6 1 -9l1 -2q0 -1 1 -1l1 -2l2 -2l1 -3q0 -4 -3 -10.5t-5 -9.5l-3 -2q0 -1 -9 -1l-3 -2q-1 -1 -3 -1zM95 13q-3 3 -4 3v1v1
h-1v1v1h-1q-1 0 -1 1l1 1q-5 10 -8 49l-2 1q0 2 1 3l-1 2v3l-1 2q0 2 1 3v3q1 3 1 8v6q2 2 2 7q0 6 -1 11l-2 7l-1 9l-2 9v11q0 7 -1 9v3l-1 2l1 2v2q0 3 -1 5v1v0l1 2v10h-1l1 3v5l-2 27l1 6q0 4 -1 4l-1 1v2l1 1l3 20l2 10q0 3 1 5q0 4 1 6l2 2v1v1h1v1v2h1h2l4 3q1 0 1 1
q4 1 9 1.5t8 -0.5l10 -3h1h2l1 -1q0 -1 1 -1q1 -1 3 -1t4 -1l8 -3q3 -1 3 -4q3 -17 2 -30q-1 -5 -1 -12q0 -5 2 -11v-12q0 -12 1 -14v-2v-1l1 -2l1 -1l3 -40l-2 -21l2 -2l2 -2q2 -6 1 -10l-1 -2q-2 -2 -1 -3l1 -1v-4v-7q0 -3 -1 -3h-3q5 -2 3 -9l-1 -10l1 -10v-2v-2l1 -2v-1
v-3q-1 -1 -1 -3q-1 -3 1 -10q1 0 1 -1q0 -3 3 -5l1 -2l1 -4q0 -5 -3 -12.5t-5 -10.5q-2 -2 -2 -3h-10l-2 -2l-3 -2q-22 0 -33 3z" />
    <glyph glyph-name="guillemotleft" unicode="&#xab;" horiz-adv-x="383" 
d="M182 170l-6 1l-1 1l-1 1h-1v-1l-1 1l-1 1q-1 0 -1 -1l-1 1l-1 1q-23 9 -59 35h-2q0 1 -2 3l-3 2l-5 4q-3 0 -3 2q0 1 -2 3q-9 9 -11 13l-2 4l-3 3q-3 2 -6.5 6.5t-6.5 9.5q-2 3 -6 10t-5.5 12t-1.5 12q0 8 1 12v3q-1 2 -0.5 3t0.5 3l1 1q1 1 1 2.5t1 2.5v3q2 2 3 2
q2 5 6 11h-1v1l2 2q4 4 11.5 12.5t15.5 16.5l6 5q4 1 4 3v2h3l1 1q14 10 23 15q6 2 10 6l4 2l21 9l1 1l1 1v-1q2 0 3 1l1 1v0q1 -1 1 0l6 1q0 -1 1 -1l1 1q1 -1 2 -3.5t1 -3.5v-2q0 -1 -3 -4v0q1 -1 -1 -3l-2 -1q-1 -3 -4 -8.5t-6 -7.5l-10 -7l-13 -10l-21 -20l-7 -9
q-7 -16 -7 -21v-1v-1l1 -2q3 -4 4 -7.5t2 -4.5l-1 -4q-1 -1 -1 -4q0 2 2 0.5t3 -5.5l-1 -2q-1 -1 0 -3h1l2 -4q0 -2 1 -3l1 -2l-1 -1l-1 -2q4 1 5 -3l1 -2q5 -11 13 -17l1 -1l2 -1l3 -2q0 -1 2 -3l2 -2q2 -4 9 -8q2 0 5 -3h3q1 -1 3 -1q4 -2 18 -16l9 -9l4 -4q1 -1 -2 -6
l2 -3l2 -3l-3 -5q-7 -9 -10 -11q-1 -1 -6 0zM316 179h-5q-3 0 -3 2v-1l-2 1h-1v0q0 -1 -1 0l-1 1q-18 5 -56 28h-1q-2 0 -6 4l-5 2q-2 1 -6 5l-12 9q-5 5 -5 6q-2 1 -16 11q-12 9 -17 15.5t-9 20.5q0 2 -1 3q0 1 -0.5 2t0.5 3v3q0 3 -1 5v3l1 2v1l2 6t2 7h-1l3 3
q20 29 24 33l9 9l1 1q0 1 1.5 1.5l1.5 0.5q10 8 23 17l5 4l9 6l21 11l3 2l2 1l2 1h1h1l6 2h1h1q1 -1 3.5 -3t1.5 -3l-2 -3l-3 -4q0 -1 1 -1v0q0 -2 -1 -3l-1 -1q-3 -3 -5 -8q-3 -9 -6 -10l-7 -7q-7 -5 -16 -14l-20 -21q-3 -5 -5.5 -14t-0.5 -14q0 -1 1 -1l1 -1q3 -1 3 -4
q0 -6 -0.5 -8t-0.5 -3h3l4 -5v-2v-3h1q1 0 3 -1t2 -3t1 -3l2 -3l-2 -2h1q3 0 7 -4q6 -7 16 -14l1 -1q1 -1 3 -1l2 -1l1.5 -0.5t2.5 -1.5l2 -3q2 -2 10 -6l4 -2h4h2q2 -1 18 -13l10 -8l2 -4q1 -1 0.5 -2.5t-0.5 -3.5l1 -3l2 -2q-3 -3 -3 -5l-9 -11q-2 -2 -5 0z" />
    <glyph glyph-name="periodcentered" unicode="&#xb7;" horiz-adv-x="222" 
d="M117 435h1v1h1v0h1h2v0v1l1 -1v1h1h1q11 1 19.5 -8.5t11.5 -20.5l1 -2v-1v-2v0q0 -1 -0.5 -1.5t0.5 -1.5t1 -4l1 -1v-2v-3l1 -1q1 -1 0.5 -1.5l-0.5 -0.5v-3l-1 -2l-2 -11l-2 -2l-2 -2q-4 -10 -6 -12.5t-7 -5.5l-10 -2h-1h-1h-2l-2 -1h-1h-1h-4v-1v0h-7q-3 -6 -5 -6.5
t-3 -0.5l-2 -1h-1h-1v-1v1v0v-1q-1 0 -1 1v0q-5 0 -14 10v0l-1 1h-1v0v0q-5 1 -10 6l-1 -1v0l-3 4q-10 27 -9 43l4 13l-1 2l4 3l7 4l1 1l2 4l1 2q2 2 3 2v0v0h1v1h1h2h3v0h1l10 -2v1h1v-1v1h1h1q1 1 1.5 0.5t0.5 -1.5h1l1 -1q6 2 7 1h1v2q2 3 4 3z" />
    <glyph glyph-name="guillemotright" unicode="&#xbb;" horiz-adv-x="383" 
d="M185 181l-3 5l2 3l2 3q-3 5 -2 6l4 4l9 9q14 14 18 16q2 0 3 1h3q3 3 5 3q7 4 9 8l2 2t2 3l3 2l2 1l1 1q8 6 13 17l1 2q1 4 5 3l-1 2l-1 1l1 2q1 1 1 3l2 4h1q2 2 0 3l-1 2q1 4 3 5.5t2 -0.5q0 3 -1 4l-1 4q1 1 2 4.5t4 7.5l1 2v1v1q0 5 -7 21l-7 9l-21 20l-13 10l-10 7
q-3 2 -6 7.5t-4 8.5l-2 1q-2 2 -1 3v0q-3 3 -3 4v2q0 1 1 3.5t2 3.5l1 -1q1 0 1 1l6 -1q0 -1 1 0v0l1 -1q1 -1 3 -1v1l1 -1l1 -1l21 -9l4 -2q4 -4 10 -6q9 -5 23 -15l1 -1h3v-2q0 -2 4 -3l6 -5q8 -8 15.5 -16.5t11.5 -12.5l2 -2v-1h-1q4 -6 6 -11q1 0 3 -2v-3q1 -1 1 -2.5
t1 -2.5l1 -1q0 -2 0.5 -3t-0.5 -3v-3q1 -4 1 -12t-2.5 -14.5t-5.5 -11.5t-5 -8q-3 -5 -6.5 -9.5t-6.5 -6.5l-3 -3l-2 -4q-2 -4 -11 -13q-2 -2 -2 -3q0 -2 -3 -2l-5 -4l-3 -2q-2 -2 -2 -3h-2q-36 -26 -59 -35l-1 -1l-1 -1q0 1 -1 1l-1 -1l-1 -1v1h-1l-1 -1l-1 -1l-6 -1
q-5 -1 -6 0q-3 2 -10 11zM53 190q0 2 -3 5l2 2l1 3q0 2 -0.5 3.5t0.5 2.5l2 4l10 8q16 12 18 13h2h4l4 2q8 4 10 6l2 3q1 1 2.5 1.5l1.5 0.5l2 1q2 0 3 1l1 1q10 7 16 14q5 5 8 4l-2 2l2 3q1 1 1 3t2 3t3 1h1v3v2l4 5h3q0 1 -0.5 3t-0.5 8q0 3 3 4l1 1q1 0 1 1q1 2 1 5
q0 9 -7 23l-20 21q-9 9 -16 14l-7 7q-2 1 -6 10q-2 5 -5 8l-1 1q-1 1 -1 3v0q1 0 1 1l-3 4l-2 3q-1 1 1.5 3t3.5 3h1h1l6 -2h1h1l2 -1l2 -1l3 -2l21 -11l9 -6l5 -4q13 -9 23 -17l1.5 -0.5t1.5 -1.5l1 -1l9 -9q5 -5 24 -33l3 -3h-1q1 -4 2 -7l2 -6v-1l1 -2v-3q-1 -2 -1 -5v-3
q1 -2 0.5 -3t-0.5 -2q-1 -1 -1 -3q-4 -14 -9 -20.5t-17 -15.5q-14 -10 -16 -11q0 -1 -5 -6l-12 -9q-4 -4 -6 -5l-5 -2q-4 -4 -6 -4h-1q-38 -23 -56 -28l-1 -1q-1 -1 -1 0v0h-1l-2 -1v1q0 -2 -3 -2h-5q-3 -2 -5 0z" />
    <glyph glyph-name="questiondown" unicode="&#xbf;" horiz-adv-x="506" 
d="M319 540l4 -3l2 -1v-1h1l1 -1v-2v0l1 1q1 0 1 -2l1 -1q7 -12 7 -25q0 -16 -12 -37v-2q-2 -2 -3 -2q0 -2 -1 -3l-2 -3q0 -1 -6 -5l-1 -2l-14 -11q-3 -3 -8 -5q-1 0 -8 -7q-6 -6 -8 -7q-5 -4 -11 -9t-7 -5q-3 -2 -10 -9l-10 -7l-3 -2l-2 -2l-6 -3l-5 -5l-1 -1h-1h-1
q-3 -2 -5.5 -4.5l-4.5 -4.5l1 -1l-4 -2q-13 -11 -29 -31l-3 -3q2 -5 0 -11l-2 -9q0 -1 -2 -3l-1 -2h1l-1 -2v-2v-1v-2q-2 -2 -2 -3q0 -3 -7 -33q-8 -37 -12 -75l2 -2q0 -4 -1 -7q0 -4 1 -6l1 -10q2 -2 0 -7v-7q0 -5 4 -31l3 -17q6 -16 17.5 -33t22.5 -26q13 -10 38 -18h3
q3 0 5 -1h5h4q7 0 13 1q1 1 2 0h3l21 7v1l7 2q37 19 54 46q9 15 10 19v3q0 2 1 3q2 0 2 1q2 7 5.5 19t3.5 17l1 20q0 8 -1 15q0 14 1 14l-1 2v3v0q2 2 0 3v2v2l1 2q2 2 0 6q0 4 2 4q1 0 1 2v1q1 3 8 8t9 3l6 -1q8 -2 9 -4q0 -1 1 0l2 1q2 0 3 -3q2 -2 4 -2l11 -7
q10 -6 15 -10t6 -10q5 -20 5 -34q0 -22 -10.5 -45t-33.5 -50q-6 -8 -24 -23q-25 -18 -69 -37l-9 -3l-7 -3q-46 -12 -86 -12q-10 0 -30 2q-26 5 -58 25q-2 2 -10 4q-3 2 -5 2.5t-2 1.5q-14 9 -24 24q-4 4 -4 9t-3 8l-3 2q-12 29 -14 40v9q3 -1 4 0q-8 7 -8 27q0 21 1 35.5
t1 23.5l1 6q1 2 1 6v4q0 1 -0.5 2t0.5 2l2 7l3 7q4 9 9 26q0 4 1 6q2 10 2 12v5q4 12 26 42q16 19 19 20l6 6q0 1 1 1v0q9 9 13 12q18 18 30 27q0 1 1 1h2q3 3 4 3q3 6 22 19l20 16l13 8l9 7q2 0 3 4h1q3 6 5 8l2 1q2 0 3 1v2q1 0 7 9l2 1v0l1 -1q-1 3 2 8q5 7 4 13v1v1
l-1 1v1v1v2q1 1 0 2t-2 1q0 1 -1 1q0 1 -1 1l-2 1l-2 1l-1 2l3 5q0 5 1 8l2 2q0 1 2.5 1.5t5.5 2.5l1 3l1 3l8 4q12 6 21 6zM282 598h-1v-1h-1v0h-1h-2v0v-1l-1 1v-1h-1h-1q-11 -1 -19.5 8.5t-11.5 20.5l-1 2v1v2v0q0 1 0.5 1.5t-0.5 1.5t-1 4l-1 1v2v3l-1 1q-1 1 -0.5 1.5
l0.5 0.5v3l1 2l2 11l2 2l2 2q4 10 6 12.5t7 5.5l10 2h1h1h2l2 1h1h1h4v1v0h7q3 6 5 6.5t3 0.5l2 1h1h1v1v-1v0v1q1 0 1 -1v0q5 0 14 -10v0l1 -1h1v0v0q5 -1 10 -6l1 1v0l3 -4q10 -27 9 -43l-4 -13l1 -2l-4 -3l-7 -4l-1 -1l-2 -4l-1 -2q-2 -2 -3 -2v0v0h-1v-1h-1h-2h-3v0h-1
l-10 2v-1h-1v1v-1h-1h-1q-1 -1 -1.5 -0.5t-0.5 1.5h-1l-1 1q-6 -2 -7 -1h-1v-2q-3 -3 -4 -3z" />
    <glyph glyph-name="endash" unicode="&#x2013;" horiz-adv-x="600" 
d="M521 281l-6 -2h-2h-3v-1h-1v-1h-2h-2q-13 -2 -85 -4v-1h-4h-7h-4q-2 -1 -5 -1l-5 1h-6q-2 1 -12 1h-12h-4q-2 1 -6 1h-18l-15 -1q-6 0 -11 -1q-9 -1 -19 -1t-16 1h-18h-2l-4 -1l-5 1h-4l-7 -1h-3v0l-2 1h-18v-1l-4 1q-6 1 -55 -1h-8h-10v-1l-4 1h-2l-32 2h-8q-7 0 -8 1
l-18 1l-5 1q0 1 -2 1l-2 -1v1h-2h-2v1q0 1 -2 1q-4 2 -4 3l-2 1v0q-9 9 -2 11l2 3q0 3 2 4v2h2l2 1q2 1 6 5q1 1 2 3t2 3l3 1.5t2 0.5q18 2 54 2l18 -1q6 0 10 1h10l23 1h24h2h2l4 1h2q8 1 41 1h28l34 -2l4 1l5 2q4 1 16 1l4 -1q0 -1 4 -1l2 1h8h10l6 -1v-2q3 3 14 2
q25 -2 35 -1h4h4l2 1h2l4 -1h4h5q9 0 13 1h2q4 0 7 1l5 2q7 1 23 -1t22 -4l4 -2q2 0 2 -6l2 -2l4 -2v-9l-6 -14q0 -1 -6 -4z" />
    <glyph glyph-name="emdash" unicode="&#x2014;" horiz-adv-x="600" 
d="M647 287l-9 -2h-3h-3v-1h-2v-1h-3h-3q-18 -2 -121 -4v-1h-6h-9h-6q-3 -1 -8 -1l-6 1h-9q-3 1 -17 1h-17h-6q-3 1 -9 1h-26l-20 -1q-9 0 -17 -1q-12 -1 -26 -1q-15 0 -23 1h-26h-3l-6 -1l-6 1h-6l-11 -1h-3v0l-3 1h-26v-1l-6 1q-11 1 -25.5 0.5t-30.5 -0.5q-6 -1 -22 -1
h-11h-15v-1l-5 1h-3q-6 0 -46 2h-12q-9 0 -11 1l-26 1l-6 1q0 1 -3 1l-3 -1v1h-3h-3v1q0 1 -3 1q-5 2 -5 3l-3 1v0q-7 4 -7.5 7t4.5 4l3 3q0 3 3 4v2h2l3 1q3 1 9 5q2 1 3 3t3 3q1 1 2.5 1.5t3.5 0.5q28 2 77 2l26 -1q9 0 15 1h14l32 1h35h3h2l6 1h3q12 1 58 1h40l49 -2l6 1
l6 2q6 1 23 1l6 -1q0 -1 6 -1l2 1h12h14l9 -1v-2q5 3 20 2q35 -2 49 -1h6h6l3 1h3q3 0 5 -1h6h8q12 0 18 1h3q6 0 9 1l8 2q10 1 32.5 -1t31.5 -4l6 -2q3 0 3 -6l2 -2l6 -2v-9l-8 -14q0 -1 -9 -4z" />
    <glyph glyph-name="quoteleft" unicode="&#x2018;" horiz-adv-x="233" 
d="M138 693v-3q0 -1 -1 -1v-1h1h-1v-1v-1v0q-2 -11 -5 -20l-3 -8l1 -1l-1 -2l-1 -2v-1l1 -2l-1 -1l-1 -1l-3 -8q-1 0 -1 -2l-1 -1l-1 -4l1 -8v-5l1 -6v-5v-6v-2q1 0 1 -1l-1 -1v-1q0 -2 1 -3q0 -1 -1 -1v-1q4 1 12 1q11 0 17 -1l1 1l2 -1h3h1q2 0 3 -1l4 -3q7 -5 8 -7
q2 -2 2 -6q6 -11 6.5 -16t-1.5 -11q-1 -4 -9 -12v-1q0 -2 -2 -2h-1l-2 -3q0 -1 -1 -1q-1 1 -1 0q-1 0 -3 -2l-2 -1l1 -1h-2l-6 -4l-9 -7q-2 0 -3 -1l-2 -1v-1h-1h-1q-2 -1 -4.5 -2t-5.5 -2q-2 0 -3 -1h-3q-2 0 -3 -1q-4 -1 -5 0h-1h-1l-1 1l-2 1h-1q-5 5 -3 7v2v1
q-2 -1 -5 -1l-1 -1l-1 -1h-1h-2l-15 -2q-5 0 -7 1.5t-4 5.5l-3 6q-3 4 -5 13q0 5 -3 11l-1 4q-4 20 -4 24q-1 0 -1 1v1q0 1 -1 1v2l-1 15l1 20l7 17q0 2 -1 3l-1 2q-1 3 1 8l2 2l2 2v1l4 9q1 3 2 2l2 -1q-2 4 2 8q4 5 10 15l1 1l1 1l1 2l4 4q4 2 5 6l1 2l1 1v2q0 2 1 2
q1 3 13 8l8 2h3q1 0 4 -4h2h3q0 -2 3 -7q5 -4 6 -9q1 -1 1 -4z" />
    <glyph glyph-name="quoteright" unicode="&#x2019;" horiz-adv-x="234" 
d="M95 529v3q0 1 1 1v1h-1h1v1v1v0q2 11 5 20l3 8l-1 1l1 2l1 2v1l-1 2l1 1l1 1l3 8q1 0 1 2l1 1q1 1 1 4q0 5 -1 8v5l-1 6v5v6v2q-1 0 -1 1l1 1v1q0 2 -1 3q0 1 1 1v1l-12 -1l-17 1l-1 -1l-2 1h-3h-1q-2 0 -3 1l-4 3q-7 5 -8 7q-2 2 -2 6q-6 11 -6.5 16t1.5 11q2 5 9 12v1
q0 2 2 2h1l2 3q0 1 1 1q1 -1 1 0q1 0 3 2l2 1l-1 1h2l6 4l9 7q2 0 3 1l2 1v1h1h1q2 1 4.5 2t5.5 2q2 0 3 1h3q2 0 3 1q4 1 5 0h1h1l1 -1l2 -1h1q5 -5 3 -7v-2v-1q2 1 5 1l1 1l1 1h1h2l15 2q5 0 7 -1.5t4 -5.5l3 -6q3 -4 5 -13q0 -5 3 -11l1 -4q4 -20 4 -24q1 0 1 -1v-1
q0 -1 1 -1v-2q1 -4 1 -15q0 -12 -1 -20l-7 -17q0 -2 1 -3l1 -2q1 -2 -1 -8l-2 -2l-2 -2v-1l-4 -9q-1 -3 -2 -2l-2 1q2 -4 -2 -8q-4 -5 -10 -15l-1 -1l-1 -1l-1 -2l-4 -4q-4 -2 -5 -6l-1 -2l-1 -1v-2q0 -2 -1 -2q-1 -3 -13 -8l-8 -2h-3q-1 0 -4 4h-2h-3q0 3 -3 7q-4 5 -6 9
q-1 1 -1 4z" />
    <glyph glyph-name="quotesinglbase" unicode="&#x201a;" horiz-adv-x="187" 
d="M27 -68h2q0 1 1 1t1 1v1l1 1l1 -1q0 1 9 9q9 9 12 13v0l2 4v1l1 2h2l1 2l2 3l4 5q1 0 1 1l3 12l1 5v5q0 2 1 3q-1 -2 -3 0h-1v0v0h-1v0h-1q-7 3 -17 17h-1q-1 0 -1 1q-1 1 -1 4q-2 0 -2 1l1 2l-1 2q-1 1 0 2l-1 3l1 1l-1 3q1 1 -0.5 4t-1.5 4q-1 4 -1 10l4 10l2 2
q-1 0 -1 1h1l1 1l2 2v1v1h2l4 3v1h2q4 1 8.5 3t7.5 3h3h1q2 5 5 5l2 1l2 2h1q1 1 3 1h1q1 0 4 1t6 1q2 2 4 -1q7 -4 12 -10t11 -21q0 -2 2 -5t2 -6q2 -7 3 -14.5t1 -10.5v-2v-1q0 -3 1 -3q0 -15 -8 -37q0 -3 -10 -16q0 -1 -0.5 -1.5t0.5 -1.5v-1q0 -5 -4 -9l-2 -1
q-1 0 -3 -2l1 -1q-2 -2 -4 -2q-2 -5 -4 -5q0 -1 -1 -2t-2 0v2q0 -3 -2.5 -4.5t-3.5 -2.5l-15 -10l-2 -2q-1 -1 -1 -0.5v0.5q0 -1 -1 -1h-1l-3 -1q0 -1 -2 -1l-8 -4q-1 -1 -2 0q-2 -3 -3 -4h-1q-4 -3 -15 -1h-9q0 1 -2 1q-1 0 -1.5 1t-0.5 2l-1 2h-2v5q0 5 2 6q0 3 1 4z" />
    <glyph glyph-name="quotedblleft" unicode="&#x201c;" horiz-adv-x="403" 
d="M138 693v-3q0 -1 -1 -1v-1h1h-1v-1v-1v0q-2 -11 -5 -20l-3 -8l1 -1l-1 -2l-1 -2v-1l1 -2l-1 -1l-1 -1l-3 -8q-1 0 -1 -2l-1 -1l-1 -4l1 -8v-5l1 -6v-5v-6v-2q1 0 1 -1l-1 -1v-1q0 -2 1 -3q0 -1 -1 -1v-1q4 1 12 1q11 0 17 -1l1 1l2 -1h3h1q2 0 3 -1l4 -3q7 -5 8 -7
q2 -2 2 -6q6 -11 6.5 -16t-1.5 -11q-1 -4 -9 -12v-1q0 -2 -2 -2h-1l-2 -3q0 -1 -1 -1q-1 1 -1 0q-1 0 -3 -2l-2 -1l1 -1h-2l-6 -4l-9 -7q-2 0 -3 -1l-2 -1v-1h-1h-1q-2 -1 -4.5 -2t-5.5 -2q-2 0 -3 -1h-3q-2 0 -3 -1q-4 -1 -5 0h-1h-1l-1 1l-2 1h-1q-5 5 -3 7v2v1
q-2 -1 -5 -1l-1 -1l-1 -1h-1h-2l-15 -2q-5 0 -7 1.5t-4 5.5l-3 6q-3 4 -5 13q0 5 -3 11l-1 4q-4 20 -4 24q-1 0 -1 1v1q0 1 -1 1v2l-1 15l1 20l7 17q0 2 -1 3l-1 2q-1 3 1 8l2 2l2 2v1l4 9q1 3 2 2l2 -1q-2 4 2 8q4 5 10 15l1 1l1 1l1 2l4 4q4 2 5 6l1 2l1 1v2q0 2 1 2
q1 3 13 8l8 2h3q1 0 4 -4h2h3q0 -2 3 -7q5 -4 6 -9q1 -1 1 -4zM298 693v-3q0 -1 -1 -1v-1h1h-1v-1v-1v0q-2 -11 -5 -20l-3 -8l1 -1l-1 -2l-1 -2v-1l1 -2l-1 -1l-1 -1l-3 -8q-1 0 -1 -2l-1 -1l-1 -4l1 -8v-5l1 -6v-5v-6v-2q1 0 1 -1l-1 -1v-1q0 -2 1 -3q0 -1 -1 -1v-1
q4 1 12 1q11 0 17 -1l1 1l2 -1h3h1q2 0 3 -1l4 -3q7 -5 8 -7q2 -2 2 -6q6 -11 6.5 -16t-1.5 -11q-1 -4 -9 -12v-1q0 -2 -2 -2h-1l-2 -3q0 -1 -1 -1q-1 1 -1 0q-1 0 -3 -2l-2 -1l1 -1h-2l-6 -4l-9 -7q-2 0 -3 -1l-2 -1v-1h-1h-1q-2 -1 -4.5 -2t-5.5 -2q-2 0 -3 -1h-3
q-2 0 -3 -1q-4 -1 -5 0h-1h-1l-1 1l-2 1h-1q-5 5 -3 7v2v1q-2 -1 -5 -1l-1 -1l-1 -1h-1h-2l-15 -2q-5 0 -7 1.5t-4 5.5l-3 6q-3 4 -5 13q0 5 -3 11l-1 4q-4 20 -4 24q-1 0 -1 1v1q0 1 -1 1v2l-1 15l1 20l7 17q0 2 -1 3l-1 2q-1 3 1 8l2 2l2 2v1l4 9q1 3 2 2l2 -1q-2 4 2 8
q4 5 10 15l1 1l1 1l1 2l4 4q4 2 5 6l1 2l1 1v2q0 2 1 2q1 3 13 8l8 2h3q1 0 4 -4h2h3q0 -2 3 -7q5 -4 6 -9q1 -1 1 -4z" />
    <glyph glyph-name="quotedblright" unicode="&#x201d;" horiz-adv-x="386" 
d="M254 529v3q0 1 1 1v1h-1h1v1v1v0q2 11 5 20l3 8l-1 1l1 2l1 2v1l-1 2l1 1l1 1l3 8q1 0 1 2l1 1q1 1 1 4q0 5 -1 8v5l-1 6v5v6v2q-1 0 -1 1l1 1v1q0 2 -1 3q0 1 1 1v1l-12 -1l-17 1l-1 -1l-2 1h-3h-1q-2 0 -3 1l-4 3q-7 5 -8 7q-2 2 -2 6q-6 11 -6.5 16t1.5 11q2 5 9 12v1
q0 2 2 2h1l2 3q0 1 1 1q1 -1 1 0q1 0 3 2l2 1l-1 1h2l6 4l9 7q2 0 3 1l2 1v1h1h1q2 1 4.5 2t5.5 2q2 0 3 1h3q2 0 3 1q4 1 5 0h1h1l1 -1l2 -1h1q5 -5 3 -7v-2v-1q2 1 5 1l1 1l1 1h1h2l15 2q5 0 7 -1.5t4 -5.5l3 -6q3 -4 5 -13q0 -5 3 -11l1 -4q4 -20 4 -24q1 0 1 -1v-1
q0 -1 1 -1v-2q1 -4 1 -15q0 -12 -1 -20l-7 -17q0 -2 1 -3l1 -2q1 -2 -1 -8l-2 -2l-2 -2v-1l-4 -9q-1 -3 -2 -2l-2 1q2 -4 -2 -8q-4 -5 -10 -15l-1 -1l-1 -1l-1 -2l-4 -4q-4 -2 -5 -6l-1 -2l-1 -1v-2q0 -2 -1 -2q-1 -3 -13 -8l-8 -2h-3q-1 0 -4 4h-2h-3q0 3 -3 7q-4 5 -6 9
q-1 1 -1 4zM94 529v3q0 1 1 1v1h-1h1v1v1v0q2 11 5 20l3 8l-1 1l1 2l1 2v1l-1 2l1 1l1 1l3 8q1 0 1 2l1 1q1 1 1 4q0 5 -1 8v5l-1 6v5v6v2q-1 0 -1 1l1 1v1q0 2 -1 3q0 1 1 1v1l-12 -1l-17 1l-1 -1l-2 1h-3h-1q-2 0 -3 1l-4 3q-7 5 -8 7q-2 2 -2 6q-6 11 -6.5 16t1.5 11
q2 5 9 12v1q0 2 2 2h1l2 3q0 1 1 1q1 -1 1 0q1 0 3 2l2 1l-1 1h2l6 4l9 7q2 0 3 1l2 1v1h1h1q2 1 4.5 2t5.5 2q2 0 3 1h3q2 0 3 1q4 1 5 0h1h1l1 -1l2 -1h1q5 -5 3 -7v-2v-1q2 1 5 1l1 1l1 1h1h2l15 2q5 0 7 -1.5t4 -5.5l3 -6q3 -4 5 -13q0 -5 3 -11l1 -4q4 -20 4 -24
q1 0 1 -1v-1q0 -1 1 -1v-2q1 -4 1 -15q0 -12 -1 -20l-7 -17q0 -2 1 -3l1 -2q1 -2 -1 -8l-2 -2l-2 -2v-1l-4 -9q-1 -3 -2 -2l-2 1q2 -4 -2 -8q-4 -5 -10 -15l-1 -1l-1 -1l-1 -2l-4 -4q-4 -2 -5 -6l-1 -2l-1 -1v-2q0 -2 -1 -2q-1 -3 -13 -8l-8 -2h-3q-1 0 -4 4h-2h-3q0 3 -3 7
q-4 5 -6 9q-1 1 -1 4z" />
    <glyph glyph-name="quotedblbase" unicode="&#x201e;" horiz-adv-x="187" 
d="M27 -68h2q0 1 1 1t1 1v1l1 1l1 -1q0 1 9 9q9 9 12 13v0l2 4v1l1 2h2l1 2l2 3l4 5q1 0 1 1l3 12l1 5v5q0 2 1 3q-1 -2 -3 0h-1v0v0h-1v0h-1q-7 3 -17 17h-1q-1 0 -1 1q-1 1 -1 4q-2 0 -2 1l1 2l-1 2q-1 1 0 2l-1 3l1 1l-1 3q1 1 -0.5 4t-1.5 4q-1 4 -1 10l4 10l2 2
q-1 0 -1 1h1l1 1l2 2v1v1h2l4 3v1h2q4 1 8.5 3t7.5 3h3h1q2 5 5 5l2 1l2 2h1q1 1 3 1h1q1 0 4 1t6 1q2 2 4 -1q7 -4 12 -10t11 -21q0 -2 2 -5t2 -6q2 -7 3 -14.5t1 -10.5v-2v-1q0 -3 1 -3q0 -15 -8 -37q0 -3 -10 -16q0 -1 -0.5 -1.5t0.5 -1.5v-1q0 -5 -4 -9l-2 -1
q-1 0 -3 -2l1 -1q-2 -2 -4 -2q-2 -5 -4 -5q0 -1 -1 -2t-2 0v2q0 -3 -2.5 -4.5t-3.5 -2.5l-15 -10l-2 -2q-1 -1 -1 -0.5v0.5q0 -1 -1 -1h-1l-3 -1q0 -1 -2 -1l-8 -4q-1 -1 -2 0q-2 -3 -3 -4h-1q-4 -3 -15 -1h-9q0 1 -2 1q-1 0 -1.5 1t-0.5 2l-1 2h-2v5q0 5 2 6q0 3 1 4z
M27 -68h2q0 1 1 1t1 1v1l1 1l1 -1q0 1 9 9q9 9 12 13v0l2 4v1l1 2h2l1 2l2 3l4 5q1 0 1 1l3 12l1 5v5q0 2 1 3q-1 -2 -3 0h-1v0v0h-1v0h-1q-7 3 -17 17h-1q-1 0 -1 1q-1 1 -1 4q-2 0 -2 1l1 2l-1 2q-1 1 0 2l-1 3l1 1l-1 3q1 1 -0.5 4t-1.5 4q-1 4 -1 10l4 10l2 2q-1 0 -1 1
h1l1 1l2 2v1v1h2l4 3v1h2q4 1 8.5 3t7.5 3h3h1q2 5 5 5l2 1l2 2h1q1 1 3 1h1q1 0 4 1t6 1q2 2 4 -1q7 -4 12 -10t11 -21q0 -2 2 -5t2 -6q2 -7 3 -14.5t1 -10.5v-2v-1q0 -3 1 -3q0 -15 -8 -37q0 -3 -10 -16q0 -1 -0.5 -1.5t0.5 -1.5v-1q0 -5 -4 -9l-2 -1q-1 0 -3 -2l1 -1
q-2 -2 -4 -2q-2 -5 -4 -5q0 -1 -1 -2t-2 0v2q0 -3 -2.5 -4.5t-3.5 -2.5l-15 -10l-2 -2q-1 -1 -1 -0.5v0.5q0 -1 -1 -1h-1l-3 -1q0 -1 -2 -1l-8 -4q-1 -1 -2 0q-2 -3 -3 -4h-1q-4 -3 -15 -1h-9q0 1 -2 1q-1 0 -1.5 1t-0.5 2l-1 2h-2v5q0 5 2 6q0 3 1 4z" />
    <glyph glyph-name="bullet" unicode="&#x2022;" horiz-adv-x="316" 
d="M168.5 420q1.5 2 5.5 4h3v2h2v0h2h4v0v2l2 -2v2h2h2q24 1 42.5 -18.5t23.5 -43.5l2 -4q-1 -1 -0.5 -1.5l0.5 -0.5v-4v0q0 -2 -1 -4t1 -3q3 -4 3 -8l2 -2v-3v-8l2 -2q1 -1 0.5 -2.5l-0.5 -1.5v-7l-2 -4q-1 -7 -3 -13t-2 -10l-4 -5l-4 -4q-9 -22 -13.5 -27t-14.5 -11
q-3 -1 -9 -2l-12 -2h-2h-2h-4q-3 0 -5 -3h-2h-2h-8v-2v0h-15q-4 -7 -6.5 -10t-5.5 -3.5t-5 -1.5l-5 -2h-2h-2v-2v2v0v-2q-2 0 -2 2v0q-11 0 -30 22v0l-2 2h-2v0v0q-12 3 -21 12l-2 -2v0l-7 9q-22 56 -19 91l9 28l-2 4l8 6q3 3 15 9l2 2q0 3 4 9l2 4q1 4 7 4v0v0h2v2h2h4h7v0
h2q5 -1 10.5 -2t10.5 -2v2h2v-2v2h2h2q2 1 3.5 0.5t1.5 -2.5h2l2 -2q2 1 7.5 2.5t7.5 -0.5h2v4q1 1 2.5 3z" />
    <glyph glyph-name="ellipsis" unicode="&#x2026;" horiz-adv-x="600" 
d="M83 88h1v1h1v0h1h2v0v1l1 -1v1h1h1q11 1 19.5 -8.5t11.5 -20.5l1 -2v-1v-2v0v-3q1 -1 1 -4l1 -1v-2v-3l1 -1v-2v-3l-1 -2l-2 -11l-2 -2l-2 -2q-4 -10 -6 -12.5t-7 -5.5l-10 -2h-1h-1h-2l-2 -1h-1h-1h-4v-1v0h-7q-3 -6 -5 -6.5t-3 -0.5l-2 -1h-1h-1v-1v1v0v-1q-1 0 -1 1v0
q-5 0 -14 10v0l-1 1h-1v0v0q-5 1 -10 6l-1 -1v0l-3 4q-10 27 -9 43l4 13l-1 2l4 3l7 4l1 1l2 4l1 2q2 2 3 2v0v0h1v1h1h2h3v0h1l10 -2v1h1v-1v1h1h1q1 1 1.5 0.5t0.5 -1.5h1l1 -1q6 2 7 1h1v2q3 3 4 3zM83 88h1v1h1v0h1h2v0v1l1 -1v1h1h1q11 1 19.5 -8.5t11.5 -20.5l1 -2v-1
v-2v0v-3q1 -1 1 -4l1 -1v-2v-3l1 -1v-2v-3l-1 -2l-2 -11l-2 -2l-2 -2q-4 -10 -6 -12.5t-7 -5.5l-10 -2h-1h-1h-2l-2 -1h-1h-1h-4v-1v0h-7q-3 -6 -5 -6.5t-3 -0.5l-2 -1h-1h-1v-1v1v0v-1q-1 0 -1 1v0q-5 0 -14 10v0l-1 1h-1v0v0q-5 1 -10 6l-1 -1v0l-3 4q-10 27 -9 43l4 13
l-1 2l4 3l7 4l1 1l2 4l1 2q2 2 3 2v0v0h1v1h1h2h3v0h1l10 -2v1h1v-1v1h1h1q1 1 1.5 0.5t0.5 -1.5h1l1 -1q6 2 7 1h1v2q3 3 4 3zM83 88h1v1h1v0h1h2v0v1l1 -1v1h1h1q11 1 19.5 -8.5t11.5 -20.5l1 -2v-1v-2v0v-3q1 -1 1 -4l1 -1v-2v-3l1 -1v-2v-3l-1 -2l-2 -11l-2 -2l-2 -2
q-4 -10 -6 -12.5t-7 -5.5l-10 -2h-1h-1h-2l-2 -1h-1h-1h-4v-1v0h-7q-3 -6 -5 -6.5t-3 -0.5l-2 -1h-1h-1v-1v1v0v-1q-1 0 -1 1v0q-5 0 -14 10v0l-1 1h-1v0v0q-5 1 -10 6l-1 -1v0l-3 4q-10 27 -9 43l4 13l-1 2l4 3l7 4l1 1l2 4l1 2q2 2 3 2v0v0h1v1h1h2h3v0h1l10 -2v1h1v-1v1
h1h1q1 1 1.5 0.5t0.5 -1.5h1l1 -1q6 2 7 1h1v2q3 3 4 3z" />
    <glyph glyph-name="guilsinglleft" unicode="&#x2039;" horiz-adv-x="251" 
d="M182 170l-6 1l-1 1l-1 1h-1v-1l-1 1l-1 1q-1 0 -1 -1l-1 1l-1 1q-23 9 -59 35h-2q0 1 -2 3l-3 2l-5 4q-3 0 -3 2q0 1 -2 3q-9 9 -11 13l-2 4l-3 3q-3 2 -6.5 6.5t-6.5 9.5q-2 3 -6 10t-5.5 12t-1.5 12q0 8 1 12v3q-1 2 -0.5 3t0.5 3l1 1q1 1 1 2.5t1 2.5v3q2 2 3 2
q2 5 6 11h-1v1l2 2q4 4 11.5 12.5t15.5 16.5l6 5q4 1 4 3v2h3l1 1q14 10 23 15q6 2 10 6l4 2l21 9l1 1l1 1v-1q2 0 3 1l1 1v0q1 -1 1 0l6 1q0 -1 1 -1l1 1q1 -1 2 -3.5t1 -3.5v-2q0 -1 -3 -4v0q1 -1 -1 -3l-2 -1q-1 -3 -4 -8.5t-6 -7.5l-10 -7l-13 -10l-21 -20l-7 -9
q-7 -16 -7 -21v-1v-1l1 -2q3 -4 4 -7.5t2 -4.5l-1 -4q-1 -1 -1 -4q0 2 2 0.5t3 -5.5l-1 -2q-1 -1 0 -3h1l2 -4q0 -2 1 -3l1 -2l-1 -1l-1 -2q4 1 5 -3l1 -2q5 -11 13 -17l1 -1l2 -1l3 -2q0 -1 2 -3l2 -2q2 -4 9 -8q2 0 5 -3h3q1 -1 3 -1q4 -2 18 -16l9 -9l4 -4q1 -1 -2 -6
l2 -3l2 -3l-3 -5q-7 -9 -10 -11q-1 -1 -6 0z" />
    <glyph glyph-name="guilsinglright" unicode="&#x203a;" horiz-adv-x="251" 
d="M53 181l-3 5l2 3l2 3q-3 5 -2 6l4 4l9 9q14 14 18 16q2 0 3 1h3q3 3 5 3q7 4 9 8l2 2t2 3l3 2l2 1l1 1q8 6 13 17l1 2q1 4 5 3l-1 2l-1 1l1 2q1 1 1 3l2 4h1q2 2 0 3l-1 2q1 4 3 5.5t2 -0.5q0 3 -1 4l-1 4q1 1 2 4.5t4 7.5l1 2v1v1q0 5 -7 21l-7 9l-21 20l-13 10l-10 7
q-3 2 -6 7.5t-4 8.5l-2 1q-2 2 -1 3v0q-3 3 -3 4v2q0 1 1 3.5t2 3.5l1 -1q1 0 1 1l6 -1q0 -1 1 0v0l1 -1q1 -1 3 -1v1l1 -1l1 -1l21 -9l4 -2q4 -4 10 -6q9 -5 23 -15l1 -1h3v-2q0 -2 4 -3l6 -5q8 -8 15.5 -16.5t11.5 -12.5l2 -2v-1h-1q4 -6 6 -11q1 0 3 -2v-3q1 -1 1 -2.5
t1 -2.5l1 -1q0 -2 0.5 -3t-0.5 -3v-3q1 -4 1 -12t-2.5 -14.5t-5.5 -11.5t-5 -8q-3 -5 -6.5 -9.5t-6.5 -6.5l-3 -3l-2 -4q-2 -4 -11 -13q-2 -2 -2 -3q0 -2 -3 -2l-5 -4l-3 -2q-2 -2 -2 -3h-2q-36 -26 -59 -35l-1 -1l-1 -1q0 1 -1 1l-1 -1l-1 -1v1h-1l-1 -1l-1 -1l-6 -1
q-5 -1 -6 0q-3 2 -10 11z" />
    <glyph glyph-name="Euro" unicode="&#x20ac;" horiz-adv-x="540" 
d="M480 105l-6 -8q0 -1 -7 -8q1 0 1 -1q-2 -1 -4 -3t-3 -4l1 -1l-8 -7q-28 -24 -68.5 -37.5t-81.5 -13.5q-15 0 -41 4l-4 1q-23 12 -45 31q-10 12 -18 25q-16 26 -28 56l-9 30q-14 56 -17 79l-3 29l-26 1q-1 1 -5 1h-4h-1l-1 1h-1l-16 4h-3q-4 1 -5 2l-10 4h-1q-1 0 0 1h-1
h-1v1v1q-2 2 -2 3v0h-1q0 2 0.5 5t1.5 4l2 2l2 2q0 1 1 1v0l1 1l9 7l14 -3q-1 1 9 -2l8 -3h5q3 0 4 -1q20 -2 19 -2q-1 8 -1 22q0 27 4 86q1 3 1 9q-1 3 -1 7q0 5 1 8l-2 1h-23q-11 -3 -17 -2l-2 1h-2h-2l-1 -1h-1v1q-1 -1 -2 -1q-1 2 -3 0h-1h-1h-1l-1 1q0 2 -3 0
q-1 0 -1 1q-1 0 -1 -1h-1q-4 0 -6 1l-2 2q0 1 -1 1l1 5l-1 1v1v1q1 1 1 3v3q0 3 1 4l1 1l2 3v1l2 2v0q-9 -4 -13 -12v-1v3q1 10 10 12q2 1 5 1l3 3l11 -1q4 0 16 -3h4h4h4l-3 6q4 -1 9 -6h14h1l1 -1l2 1h1v1q0 4 1 5t1 3q1 13 5 41h-1l4 12q30 90 66 135q3 4 34 25l3 3l12 5
q44 16 84 16q21 0 37 -5t34 -16t23 -18l5 -4q3 -3 3 -4l-1 -1q3 -2 5 -5t3 -4q0 -2 1 -3v-2q1 -3 2 -4.5t2 -2.5l3 -7v-3q0 -2 1 -3l1 -3q0 -3 -6 -8t-7 -3q-11 4 -16 11q0 1 -1 0t-1 0q-1 0 -3 3l-4 4l-17 10q-12 6 -17 11q-34 29 -66 29t-61 -28q-6 -4 -18 -30
q-30 -63 -34 -100q-2 -2 -2 -10v-6v-5q-2 -8 -3 -38h3h2q1 -1 3 -1l1 1h6h6l3 -1v-1q2 2 9 1h21h3h2l1 1h2h3l2 -1q7 0 10 1h2l2 1h2l2 1h3q8 0 13 -1l9 -2q2 0 3 -1v-4l2 -1l2 -1l-1 -5q-2 -10 -2 -9l-4 -2l-3 -1h-1h-1v-1v0h-2v-1l-1 1q-17 -3 -49 -4h-1h-4h-3h-2
q-1 -1 -3 -1t-3 1h-3h-8h-7q-2 0 -3 1h-5l-10 -2q-2 0 -2 -2q-4 -55 -4 -85q0 -34 -1 -47h2h1h4h5h3v-1q1 1 7 1l8 -1l9 1h2h2l1 1h1h2l2 -1q5 0 8 1h2l2 1h2l1 1h3q6 0 11 -1l7 -2l2 -1q1 0 1 -4l1 -1l2 -1v-5l-3 -9l-2 -2l-3 -1q0 -1 -1 0q-1 0 -1 -1h-1v-1h-1h-1
q-8 -2 -40 -3l-1 -1h-2h-3h-2h-2h-3h-2q-4 0 -6 1h-6h-3h-3h-5v-5l3 -12l2 -6l1 -2q4 -16 7 -35q2 -6 0 -9q-1 -3 1 -10l2 -3l11 -39l3 -10q-2 3 -4 1l1 -2q6 -6 12 -19q3 -8 4 -9q19 -38 40 -56q6 -6 10 -7l5 -2l3 -2q12 -5 14 -5q5 -1 14 -1q11 0 16 2q13 4 23 13
q35 30 47 43q1 1 14 19l9 12l9 12q3 4 6 1l2 -1l6 8l6 6q1 1 0 1q11 -14 13 -19q1 -3 1 -9q0 -14 -10 -27zM476 161v-1v1zM113 478q-1 2 -6 2t-9 -2v-1q0 -1 1 0v-1h1v1l2 1h4q3 0 9 -2zM65 443q0 -1 1 -1q7 -7 13 -7l3 2v1h1h-1q-1 1 -2 0h-1l-1 -1l-1 -1l-5 3l-2 1z
M64 443q-3 2 -3 6q2 -5 4 -6h-1zM61 455q-1 -3 0 -6q-1 2 0 6z" />
    <glyph glyph-name="trademark" unicode="&#x2122;" horiz-adv-x="325" 
d="M118 206l-3 -2v0h-1v0v0h-1v0v0h-1q-2 -1 -19 -1h-1h-1h-1h-1h-1h-1h-2q-1 1 -3 1h-2h-2h-1h-4v-22v-8v-4v-5v-10q0 -9 1 -10v-1l-1 -1q1 -1 1 -3v-17v-13l-1 -15l1 -3q0 -1 1 -1v-7l-1 -2v-1v-1v-4v-5v-2h-1q1 -1 1 -4l-1 -18v-1v-2q0 -1 1 -1v-1v-2l-1 -2q0 -5 1 -8v-1
q0 -3 1 -4v-1v-2q0 -7 -1 -11q0 -3 -0.5 -4.5t-0.5 -2.5v-2q-1 -1 -4 -1l-1 -2v-1q-1 0 -4.5 0.5t-5.5 1.5q-2 2 -2 3l-1 3v1v0v0q-1 0 -1 0.5v0.5l1 1h-1v0v1v1q-2 10 -2 38h-1q0 2 1 3l-1 2v2v2v2l1 2v11l1 3v2q0 5 -1 8v6v6l-1 8q0 5 1 8v7v2q-1 0 -1 0.5v0.5l1 2v1v2v2
q-1 0 -1 1l1 1v0v8v0h-1l1 2v24v4v3l-1 1l1 2v1q0 8 1 14v3v4v5v0h-1h-1h-1h-2v0h-1v0h-4v0h-1h-13h-2h-1h-1v0h-1h-7q0 1 -1 1h-2h-3h-1v0h-1v0v0q-1 0 -1 1v0q-1 0 -1 0.5v0.5v0v0q-1 3 0 3v1v1v0l1 1q1 0 1 0.5v0.5l2 2q2 1 11 1h4h2h2h5h6v0h1v0h1q3 0 5 1h7h4
q1 0 2.5 -0.5t6.5 -0.5h1l1 1h3h2q0 -1 1 -1v0h2h3h1v-1q0 1 4 1q1 0 3.5 -0.5t4.5 0.5h1q0 -1 1 0v0h1h1q0 -1 0.5 -1h0.5h4q1 0 1 1h1h1v0q2 1 7 -1q4 0 4 -1q1 0 1 -2h1l1 -1zM284 9v0v1v0v1v0v0v0v1v0q-2 8 -2 32l-1 1v1v3v1v2v2v2q0 3 1 5v5v5v7q0 3 -0.5 4t-0.5 2v6v7
q-1 3 0 8v7q0 2 -1 2v2v2q1 0 1 0.5v0.5v2l-1 2v1v1q1 0 1 1v8h-1v0l1 2q0 13 -1 25v-1l-2 -7l-2 -5l-1 -4q-1 -1 -1 -3l-3 -9q-1 -7 -2 -7q0 -1 -4 -17q0 -2 -6 -19v-2l-1 -4q-2 -2 -2 -3v-3v0l-1 -2l-3 -9v0v-2q-4 -7 -8 -26l-1 -3v-3v-1q0 -1 -1 -1v-1l-4 -11l-1 -2l1 -2
q-1 0 -1 -0.5v-0.5q1 0 -1 -2v0l-1 -2h-1v-1v0v-1h-1v0v0v0v0l-2 -1v0v0l-4 1h-1t-1 1v0q-1 0 -1 1v0v0l-1 2q-2 1 -2 3l1 6l-9 24l-1 1v2l-1 2l-1 2l-1 4q0 2 -1 2q0 2 -3 11v2l-1 3l-3 9q-1 2 -1.5 3.5t-1.5 1.5l-2 7q-4 10 -6 17l-3 8v2l-2 3v2l-2 4v2h-1q0 3 -2 9h-1v2
q-1 3 -3 8.5t-5 13.5v0v-13v-12v-1v-2v-1v-2v-20v-15l-2 -16l1 -4v0q2 -3 0 -8v-2l-1 -1l1 -1v-4q-1 -2 -1 -5v-2h-1q2 -1 0 -6v-14v-2v-1v-1v-1v-2v-1v-7v-1l1 -2v-2v-1l-1 -8q0 -4 -1 -5t-3 -1q-1 0 -1 -0.5v-0.5l-1 -1h-3l-7 2q-1 0 -1.5 1.5l-0.5 1.5v1v0v0v1v0v1v0h-1
v0v0q-1 4 -1 30v1v2v2v2v2v2v2q0 4 1 6v4l1 6v8v6v7q-1 3 -1 8t1 9v8v2v2v2v1v2v2v1v2v0v9v0v3q1 4 1 29v5v4v1v2v1l1 17q1 1 1 5v5l1 4v5q0 2 1 2v1v1v0v1v2v0q1 0 1 2l1 1v0v1q1 0 3 0.5t2 -0.5h0.5t0.5 -1l2 -2v0h1v-1v-1q2 0 2 -2l4 -6v-9q0 -3 2 -5l3 -9q2 -8 3 -9
l3 -9l8 -22l1 -3v-0.5t1 -0.5v-1l4 -11l5 -13l3 -10l5 -17l1 -1l1 -2v0l3 -7v-2l1 -2v-1l2 -4l1 -5l1 -2l-1 -1q1 0 3 -6l4 -14l1 -2l1 -2v-0.5t1 -0.5v-1v3l6 21l1 2v2l1 2q4 16 6 21l4 15l6 18v4v1l3 8q0 2 1 3l1 2v1l1 4l2 6l1 2v0l2 8l5 17l1 2v3l1 1l1 2v2q2 4 2 7l1 3
v2v1q0 4 4 11l2 4q2 2 3 1q0 1 1 1v1v0q1 0 3 1t2 0t0.5 -1h0.5l2 -2v0h1v-1v-1q2 -2 2 -3q4 -4 4 -6t0.5 -12t-0.5 -17v-10v-5v-5l1 -22v-2v-1v-1v-1q1 -4 1 -19v-13l-1 -15q0 -1 1 -1v-2l1 -1v-6v-2l-1 -2l1 -1v-3v-5l-1 -2q0 1 -1 0q1 0 1 -3v-17v-1v-1v-1v-1v-2v-1v-7
v-0.5t1 -0.5v-3q1 0 1 -0.5v-0.5v-2l-1 -9l-1 -5l-1 -2l-1 -0.5t-2 -0.5l-1 -1v-1q-2 0 -3 1q-5 0 -7 1q-3 3 -3 5z" />
    <glyph glyph-name="minus" unicode="&#x2212;" horiz-adv-x="443" 
d="M376 286h-1h-1v-1l-1 1h-2v-1q0 -1 -1 -1l-1 1q-1 0 -5 -0.5t-13 -0.5l-39 1l-1 -1q-2 0 -3 1h-4h-3q-1 -1 -3 -1t-3 1l-4 1q-5 0 -8 1h-8q-1 1 -3.5 1.5t-4.5 0.5h-6q-3 -1 -8 -1q-6 0 -7 -1h-10q-5 -1 -12 -1h-12h-12h-2l-2 -1q-2 0 -3 1h-2h-6h-1q-1 0 -1 1h-2h-12v-1
l-3 1q-2 1 -13 1q-15 0 -26 -1l-6 1q-5 0 -6 -1l-1 -1l-2 1l-2 1q-10 0 -23 3q-7 0 -11 2l-6 1q-7 0 -10 3h-1h-1v1h-1h-1q-1 0 -1 1t-1 1q-3 3 -3 4l-1 1v7q-1 4 1 6l1 2l3 4v1v1l2 1l1 1l4 5q5 7 8 7h22q7 0 13 -1l13 -2h7h6h12h11q3 -1 9 0h2h1h2h2q5 1 26 1h21h2l22 -2
l4 2l2 1q3 1 11 1q2 0 3 -1t3 -1l1 1h6q5 0 8 -1l3 -1v-2q4 4 11 2q16 -2 24 -1h3h2h2h2h3q1 -1 3 -1q6 -1 12 0q2 0 3 1h2q2 0 3 1l2 1h4q6 0 17 -3l10 -5q3 -1 4 -2.5t0 -6.5l2 -3l2 -2q-1 -3 -3 -10.5t-5 -14.5z" />
    <glyph glyph-name="uni3000" unicode="&#x3000;" horiz-adv-x="1000" 
 />
    </font>
</defs>
</svg>
