<?xml version="1.0" standalone="no"?>
<!DOCTYPE svg PUBLIC "-//W3C//DTD SVG 1.1//EN" "http://www.w3.org/Graphics/SVG/1.1/DTD/svg11.dtd" >
<svg xmlns="http://www.w3.org/2000/svg" xmlns:xlink="http://www.w3.org/1999/xlink" version="1.1">
<metadata>
Created by FontForge 20170731 at Thu Apr  1 04:52:51 2021
 By Aleksey,,,
Copyright (c) 2021 by Stefie Justprince. All rights reserved.
</metadata>
<defs>
<font id="HateYourWriting" horiz-adv-x="284" >
  <font-face 
    font-family="Hate Your Writing"
    font-weight="400"
    font-stretch="normal"
    units-per-em="1000"
    panose-1="0 0 0 0 0 0 0 0 0 0"
    ascent="800"
    descent="-200"
    x-height="319"
    cap-height="446"
    bbox="-29.9 -172 579 632.348"
    underline-thickness="50"
    underline-position="-150"
    unicode-range="U+000D-2122"
  />
<missing-glyph horiz-adv-x="250" 
 />
    <glyph glyph-name=".notdef" horiz-adv-x="250" 
 />
    <glyph glyph-name=".null" horiz-adv-x="0" 
 />
    <glyph glyph-name="nonmarkingreturn" unicode="&#xd;" horiz-adv-x="250" 
 />
    <glyph glyph-name="NULL" horiz-adv-x="0" 
 />
    <glyph glyph-name="NULL" horiz-adv-x="0" 
 />
    <glyph glyph-name="space" unicode=" " horiz-adv-x="250" 
 />
    <glyph glyph-name="exclam" unicode="!" horiz-adv-x="141" 
d="M32 367q0 11 -0.5 22t-1.5 22t1.5 20t10.5 17q14 12 31 6q20 -8 22 -33q2 -20 2 -40.5t1 -40.5q3 -128 12 -256q1 -15 0 -28q-4 -28 -30 -30q-26 0 -32 28q-2 8 -2.5 17t-1.5 17q-2 38 -4 76.5t-4 76.5q-1 32 -2.5 61t-1.5 61v4zM82 -66q13 0 21.5 -9t7.5 -22
q0 -13 -8 -21t-21 -7q-14 0 -22.5 8.5t-7.5 21.5q0 11 9.5 20.5t20.5 8.5z" />
    <glyph glyph-name="quotedbl" unicode="&#x22;" horiz-adv-x="235" 
d="M111 330q-2 -2 -2.5 -4t-2.5 -4q-4 -11 -8 -21t-10 -20q-7 -12 -17.5 -15.5t-21.5 1.5t-16.5 15.5t-0.5 24.5q10 28 19.5 55.5t13.5 57.5q2 25 30 25q22 -1 29 -26q4 -16 0 -31q-3 -15 -6.5 -29.5t-6.5 -28.5zM111 330q13 20 18.5 43t11.5 46q11 41 42 33q14 -4 20 -17
t1 -33q-5 -18 -10.5 -36.5t-12.5 -37.5q-7 -20 -17 -36q-12 -20 -37 -14q-21 6 -21 31v13q2 2 2.5 4t2.5 4z" />
    <glyph glyph-name="numbersign" unicode="#" horiz-adv-x="488" 
d="M395 223h-37q-13 0 -17 -12q-11 -24 -8 -28.5t29 -7.5q35 -5 35 -34q-1 -28 -37 -30q-13 -1 -27 2t-25 -6q-9 -8 -11 -22t-6 -26q-7 -21 -12.5 -42t-10.5 -42q-2 -5 -3 -9t-3 -9q-5 -14 -16 -20.5t-24 -1.5q-12 3 -18 14t-2 26q8 29 15.5 58t15.5 58q5 15 3 17.5t-18 2.5
q-8 0 -16.5 -0.5t-16.5 0.5q-12 2 -17.5 -3.5t-7.5 -16.5q-2 -16 -5 -31.5t-6 -30.5l-4 -16l-4 -16q-5 -14 -15.5 -20t-22.5 -3t-18.5 14t-4.5 25q3 19 6 37.5t8 36.5q3 12 0.5 17.5t-16.5 3.5h-9.5t-9.5 2q-27 5 -29 30q-1 12 6.5 20.5t20.5 12.5q11 2 20.5 1.5t20.5 0.5
q6 0 12 5t10.5 12.5t7 15t0.5 13.5q-2 5 -5.5 5h-7.5q-11 2 -22 2t-22 2q-15 2 -23 10.5t-8 22.5q1 12 9 20t23 10q17 2 32.5 0.5t32.5 -2.5q18 -1 23 15t11 31t8 32q1 8 4 14.5t8 12.5q14 23 40 15q11 -4 16.5 -14.5t3.5 -23.5q-3 -17 -9.5 -33t-12.5 -33q-5 -11 -2 -14.5
t14 -2.5h15q16 0 24.5 -0.5t13 1t6.5 6t4 15.5q3 15 8 29.5t-5 31.5q-8 14 -2 26.5t21 19.5q16 8 29.5 3t19.5 -20q8 -21 5 -40q-2 -13 -4.5 -25.5t-5.5 -25.5q-3 -15 -0.5 -18t18.5 -3q12 0 24 -1t23 -4q30 -10 27 -35q-5 -26 -34 -28h-33v1zM223 175q15 0 23.5 0.5t13 3.5
t7 10t5.5 19q5 17 -11 17h-24.5t-24.5 1q-11 0 -16 -11q-13 -28 -9.5 -34t34.5 -6h2z" />
    <glyph glyph-name="dollar" unicode="$" horiz-adv-x="426" 
d="M221 -78q0 -8 0.5 -15.5t-1.5 -15.5q-2 -12 -9 -19.5t-21 -8.5q-12 0 -21 7t-11 21q-2 11 -3 21t0 21q0 12 -4 17.5t-18 6.5q-41 3 -78 21q-35 17 -22 46t49 12q12 -5 25 -8.5t26 -5.5q18 -3 17 14q-2 32 -3 63.5t0 63.5q0 12 -12 17q-5 3 -10 5q-42 23 -52.5 59.5
t13.5 77.5q3 5 6.5 10.5t8.5 9.5q28 23 31 59q0 28 30 33q14 2 22.5 -5.5t13.5 -20.5q2 -5 5 -8.5t10 -1.5q6 2 6.5 6t0.5 9v8t1 8q5 22 26 25q20 3 31 -15l4 -8t1 -8q0 -17 8 -28t22 -20t21 -25t6.5 -33.5t-8 -33.5t-21.5 -26q-9 -6 -9 -15q0 -2 0.5 -4.5t-0.5 -4.5
q-2 -22 3.5 -39t29.5 -27q8 -4 15 -11t13 -15q32 -39 26.5 -79.5t-48.5 -69.5q-11 -7 -21.5 -13.5t-16.5 -20.5q-5 -11 -17.5 -12.5t-23.5 5.5q-4 3 -8 5.5t-10 2.5q-16 0 -20 -5.5t-3 -31.5zM243 78q-1 14 -1.5 28t-2.5 29q-1 10 -7.5 12.5t-13.5 2.5q-8 0 -7.5 -5.5
t0.5 -10.5q1 -24 1.5 -48t2.5 -48q0 -5 1 -11t10 -5q8 1 13 4.5t4 12.5v39zM207 305q2 -17 2.5 -35t0.5 -37q0 -11 7 -14.5t15 -2.5q8 0 6.5 6t-1.5 11q0 6 -0.5 12t-0.5 12q-2 15 -2.5 30t-2.5 31q-1 5 -2.5 10t-9.5 5q-9 -1 -10.5 -6t-1.5 -11v-11z" />
    <glyph glyph-name="percent" unicode="%" horiz-adv-x="449" 
d="M57 -65q-13 0 -23 17q-9 18 4 36q25 34 51 66q58 75 115.5 149t118.5 147q11 12 19 25.5t22 23.5q29 21 49 0q8 -9 8 -21.5t-11 -24.5q-82 -96 -158 -193.5t-153 -197.5q-8 -10 -16.5 -18.5t-25.5 -8.5zM374 0q-2 -18 -8 -35.5t-19 -32.5q-15 -18 -33 -24.5t-36 -3.5
t-33 16t-23 34q-5 14 -5 30.5t4 32t12.5 30t19.5 23.5q39 32 85 0q33 -24 36 -70zM55 297q2 25 14.5 46.5t38.5 35.5t51 1q8 -4 14 -4q23 -4 35.5 -21t7.5 -40q-7 -35 -30 -59t-54 -29q-31 -4 -54 16t-23 54z" />
    <glyph glyph-name="ampersand" unicode="&#x26;" horiz-adv-x="422" 
d="M30 30q2 30 13 61t26 62q9 18 18.5 36t19.5 36q10 15 0 32q-14 26 -21.5 52.5t-0.5 57.5q7 32 31 56t56 29q38 6 60.5 -17.5t14.5 -61.5q-6 -29 -19 -55.5t-27 -52.5q-9 -18 4 -31l21.5 -21.5l21.5 -21.5q10 -9 16 2q7 10 13 19.5t12 19.5q4 5 2.5 9.5t-2.5 9.5
q-9 30 16 43q11 5 23 1.5t20 -16.5t16 -25.5t16 -26.5q6 -10 7 -20t-7 -20q-14 -18 -36 -10q-7 3 -10.5 0.5t-7.5 -7.5q-8 -12 -12 -18.5t-3.5 -12t5.5 -11t15 -15.5q17 -16 31.5 -33t25.5 -37q13 -23 -3 -41q-16 -16 -38 -6q-5 2 -8.5 6.5t-6.5 9.5q-22 33 -53 63
q-8 9 -14.5 10t-16.5 -10q-22 -24 -44 -47t-48 -44q-10 -9 -27 -19q-20 -11 -38 -11.5t-31.5 8.5t-21.5 26t-8 42zM100 23q4 2 10 6q26 23 49.5 47.5t47.5 48.5q5 5 4 9t-5 8q-8 8 -16 15.5t-16 15.5q-14 17 -24 -3q-7 -15 -14.5 -30l-15.5 -31q-9 -17 -14.5 -35.5
t-9.5 -38.5q-1 -3 -1.5 -6.5t5.5 -5.5zM153 313q10 17 16 31.5t12 29.5q1 3 2.5 6.5t-2.5 5.5q-3 2 -6 0.5t-6 -3.5q-16 -8 -20.5 -26.5t4.5 -43.5z" />
    <glyph glyph-name="quotesingle" unicode="'" horiz-adv-x="138" 
d="M97 377q-1 -17 1 -35t6 -37l2 -10t0 -10q-3 -24 -25 -28q-23 -5 -34 17q-2 5 -3.5 11.5t-3.5 12.5q-5 26 -6.5 52.5t-3.5 52.5q0 11 3 22q7 23 29 23q23 1 31 -22q5 -11 4 -23t0 -26z" />
    <glyph glyph-name="parenleft" unicode="(" horiz-adv-x="214" 
d="M30 188q3 63 15.5 126.5t42.5 123.5q4 8 9 16t13 13q22 17 42 -1q9 -8 11.5 -20t-5.5 -22q-26 -33 -36 -72t-18 -79q-9 -47 -9 -93t15 -92q9 -29 24.5 -53.5t39.5 -43.5q1 -1 1.5 -2t2.5 -2q11 -10 12.5 -22t-6.5 -23q-8 -9 -19.5 -11t-24.5 6q-17 10 -30.5 24.5
t-24.5 31.5q-29 44 -41 92.5t-14 102.5z" />
    <glyph glyph-name="parenright" unicode=")" horiz-adv-x="214" 
d="M190 188q-2 -54 -14 -102.5t-41 -92.5q-11 -17 -24 -31.5t-31 -24.5q-26 -15 -43 5q-8 11 -7 23t12 22q2 1 2.5 2t1.5 2q24 19 39.5 43.5t24.5 53.5q15 46 15 92t-9 93q-7 40 -17 79t-37 72q-8 10 -5.5 22t11.5 20q20 18 42 1q8 -5 13 -13t9 -16q30 -60 42.5 -123.5
t15.5 -126.5z" />
    <glyph glyph-name="asterisk" unicode="*" horiz-adv-x="239" 
d="M138 491q5 4 6.5 8.5t3.5 8.5q12 23 34 19t25 -28q2 -11 -1.5 -21t-8.5 -20q-6 -13 2 -25q10 -14 7 -27t-19 -21q-12 -6 -14.5 -13.5t1.5 -18.5q5 -13 8 -25.5t7 -26.5q4 -15 -1 -26.5t-18 -15.5q-28 -10 -41 21q-3 9 -6.5 11.5t-13.5 -2.5q-18 -10 -33 4q-17 15 -8 34
q5 11 2 16t-16 7q-12 2 -18 10.5t-6 20.5q0 23 24 29q4 2 7 2q25 2 27.5 8t-6.5 32q-2 5 -4 9.5t-4 9.5q-5 14 -1.5 26t14.5 19q12 6 24 2t21 -17q2 -2 3 -4.5t3 -5.5z" />
    <glyph glyph-name="plus" unicode="+" horiz-adv-x="353" 
d="M95 142q-11 -1 -20.5 -0.5t-20.5 3.5q-24 6 -24 31q0 23 25 30q15 3 29.5 2.5t29.5 -0.5q20 0 17 19q-2 16 -4.5 31.5t-1.5 32.5q2 38 31 40q33 2 36 -38l4 -65q0 -17 17 -16q17 2 33 2.5t33 1.5q37 0 39 -30q3 -31 -37 -34l-61 -4q-23 0 -20 -23l6 -75v-11t-1 -11
q-2 -12 -9 -19.5t-20 -8.5q-12 -1 -21 6t-11 21q-3 18 -4.5 37t-2.5 38q-1 17 -1 25t-3.5 11.5t-12 3.5h-25.5z" />
    <glyph glyph-name="comma" unicode="," horiz-adv-x="183" 
d="M145 77q2 -33 -6.5 -63t-28.5 -56l-9 -12q-13 -13 -26.5 -15t-24.5 8t-10.5 23.5t13.5 27.5q22 23 26 50.5t1 56.5q-1 7 -2 13.5t0 13.5q5 26 29 30q11 2 20.5 -6t13.5 -20t3.5 -25t0.5 -26z" />
    <glyph glyph-name="hyphen" unicode="-" horiz-adv-x="287" 
d="M140 163q-18 0 -36 -0.5t-36 0.5q-17 1 -27.5 9.5t-10.5 22.5t10.5 22.5t27.5 9.5q36 1 72 0t72 2q18 2 29 -7.5t11 -23.5q1 -14 -9 -23.5t-29 -10.5q-18 -1 -36.5 -0.5t-37.5 0.5v-1z" />
    <glyph glyph-name="period" unicode="." horiz-adv-x="119" 
d="M90 19q0 -13 -9 -21.5t-22 -8.5t-21 8t-8 20q0 13 8.5 22t21.5 9q11 0 20.5 -9t9.5 -20z" />
    <glyph glyph-name="slash" unicode="/" horiz-adv-x="366" 
d="M307 545q20 -11 25.5 -22.5t-2.5 -34.5q-20 -60 -45 -118t-49 -117q-35 -85 -71 -169t-69 -171q-17 -43 -47 -32q-30 12 -13 56q51 131 106 258.5t107 258.5q5 14 9 27t8 27q8 29 34 37h7z" />
    <glyph glyph-name="zero" unicode="0" horiz-adv-x="329" 
d="M153 418q30 -8 51.5 -23.5t37.5 -35.5t27 -44.5t20 -50.5q20 -60 14 -117t-33 -114q-1 -2 -1 -2.5t-1 -2.5q-17 -30 -40 -45.5t-48 -17.5t-50 10t-46 38q-35 45 -46.5 94.5t-4.5 104.5q5 45 19 86t45 76q2 2 3.5 5t1.5 6q2 14 10 21t19 12h22zM239 175q-1 77 -47 141
q-12 17 -30.5 17t-29.5 -19q-29 -54 -36.5 -109t15.5 -114q7 -17 17 -31.5t27 -24.5q22 -14 42 6q13 12 21 30q11 25 15.5 51t5.5 53z" />
    <glyph glyph-name="one" unicode="1" horiz-adv-x="174" 
d="M30 297q5 21 13.5 42t25.5 38q15 15 33.5 8.5t22.5 -29.5q3 -20 4 -39.5t2 -39.5q2 -60 2.5 -120t4.5 -120q2 -17 4 -34.5t6 -34.5q3 -16 -2.5 -27.5t-18.5 -15.5q-14 -3 -25.5 4.5t-16.5 23.5q-7 26 -9 52l-4 52q-3 45 -4 88.5t0 88.5q0 10 -2.5 17.5t-15.5 9.5
q-11 3 -15 12.5t-5 23.5z" />
    <glyph glyph-name="two" unicode="2" horiz-adv-x="360" 
d="M149 46q36 8 71.5 13.5t70.5 16.5q30 8 41 -16q5 -12 0.5 -23.5t-17.5 -18.5q-10 -7 -26 -10q-14 -3 -27 -6t-27 -5q-35 -7 -70.5 -14t-70.5 -16q-2 -1 -3.5 -1t-3.5 -1q-12 -2 -22.5 1t-17.5 14q-8 11 -6 21.5t10 20.5q29 41 55.5 82.5t46.5 86.5q11 22 19 44.5t6 47.5
q0 20 -6.5 24t-25.5 -3q-11 -4 -19.5 -10t-16.5 -14q-12 -12 -9 -28q4 -27 -24 -35q-13 -4 -24.5 1t-17.5 17q-7 14 -5 27.5t9 27.5q38 69 116 83q26 5 47 -7t32 -37q17 -39 6 -85q-11 -48 -32.5 -89.5t-46.5 -82.5q-3 -5 -5.5 -9.5t-5.5 -9.5q-1 -1 -0.5 -2.5t-0.5 -4.5z
" />
    <glyph glyph-name="three" unicode="3" horiz-adv-x="307" 
d="M278 141q0 -23 -9.5 -46t-25 -43t-37.5 -36t-47 -25q-14 -5 -27 -8t-27 -4q-11 -2 -21.5 -0.5t-18.5 9.5q-14 12 -10.5 29.5t20.5 23.5q10 3 25 3q67 4 104 64q13 20 9 41q-2 13 -8 23.5t-20 13.5q-15 3 -30.5 2.5t-27.5 -14.5q-28 -32 -53 -12q-12 11 -12.5 27t13.5 31
q15 17 25 36.5t18 39.5q2 5 3.5 11t-5.5 9q-7 2 -11.5 -2t-7.5 -9q-2 -4 -3 -8l-2 -8q-9 -23 -32 -23q-12 1 -19 7.5t-9 17.5q-5 21 3.5 37.5t22.5 30.5q23 22 58 25q26 3 46 -13.5t23 -45.5q3 -30 -9 -58q-3 -8 -1 -10.5t10 -4.5q43 -7 68 -37t25 -74z" />
    <glyph glyph-name="four" unicode="4" 
d="M177 25q0 17 -0.5 34t0.5 34q0 18 -18 17q-20 -2 -39.5 -2.5t-39.5 2.5q-65 10 -45 71q12 34 24 67t23 68q5 16 0 30q-5 13 -1 24.5t13 21.5q8 8 17 12.5t21 0.5q22 -8 24 -34q2 -22 -3.5 -42.5t-12.5 -40.5q-8 -25 -16.5 -49.5t-17.5 -48.5q-5 -17 12 -16q27 1 39.5 0.5
t16.5 3.5t3 15.5t0 36.5v19.5t3 18.5q8 22 28 23q23 1 32 -21q5 -11 4.5 -22.5t-0.5 -22.5q-3 -78 -4 -156t7 -156q1 -5 1 -9.5v-9.5q-2 -29 -28 -31q-12 -2 -21 4t-12 20q-5 24 -7.5 48.5t-2.5 48.5v41z" />
    <glyph glyph-name="five" unicode="5" horiz-adv-x="347" 
d="M115 198q15 12 27 23t26 19q14 9 28.5 16.5t31.5 11.5q33 8 57 -7t32 -48q5 -19 3.5 -37.5t-7.5 -36.5q-14 -47 -40.5 -85.5t-63.5 -70.5q-8 -7 -16.5 -12t-19.5 -7q-14 -3 -25.5 3t-16.5 19q-8 26 22 39q8 3 15 8t12 10q46 46 68 103q3 8 5.5 17t2.5 19q1 17 -5 21
t-21 -2q-25 -10 -44 -27t-36 -37q-5 -6 -10 -12.5t-11 -12.5q-8 -10 -18 -15t-24 -2q-14 4 -20.5 13t-8.5 22q-5 29 -7 58l-4 58q-1 10 -3.5 19t-6.5 19q-8 18 -6.5 37t7.5 36q8 20 28 20.5t31 -19.5q5 -8 10.5 -10.5t13.5 -1.5q35 4 68.5 1t67.5 -5q17 0 26 -9.5t9 -23.5
q-2 -31 -37 -31q-29 0 -58.5 2t-59.5 1q-21 0 -24.5 -4t-1.5 -25q1 -13 1.5 -25.5t2.5 -28.5z" />
    <glyph glyph-name="six" unicode="6" horiz-adv-x="360" 
d="M130 418q23 -12 25.5 -25.5t-11.5 -35.5q-32 -53 -43.5 -109t0.5 -118q2 -8 5.5 -17t9.5 -19q9 17 16.5 32.5t17.5 29.5q9 14 19.5 26.5t24.5 23.5q48 38 94 11q23 -13 34.5 -38t6.5 -53q-8 -42 -28 -75.5t-55 -57.5t-75.5 -19t-73.5 38q-38 38 -53.5 84.5t-13.5 98.5
q2 51 15 97.5t39 91.5q13 24 35 34h11zM266 133q0 10 -1.5 16.5t-7.5 10.5q-7 4 -13 1.5t-11 -6.5q-4 -3 -11 -10q-18 -20 -30 -43.5t-22 -48.5q-5 -13 10 -15q12 -1 23 5q26 17 41.5 40t21.5 50z" />
    <glyph glyph-name="seven" unicode="7" horiz-adv-x="321" 
d="M244 373q23 1 36 -15t10 -40q-2 -17 -6.5 -32t-9.5 -31q-24 -71 -40 -143t-30 -145q-2 -10 -4 -17q-10 -34 -39 -28q-13 3 -19.5 14t-3.5 28q8 40 16 79.5t16 79.5q9 41 21 80l24 78q5 17 2 20t-20 0q-30 -5 -60 -11.5t-59 -15.5q-17 -5 -29.5 0t-17.5 19q-4 14 4 26
t25 17q35 11 70.5 18.5t71.5 12.5q22 3 42 6z" />
    <glyph glyph-name="eight" unicode="8" horiz-adv-x="331" 
d="M216 237q0 -12 -1.5 -27t-3.5 -30q-3 -14 12 -20q14 -5 27 -11.5t25 -15.5q45 -33 17 -79q-21 -34 -50 -60t-64 -46q-23 -13 -47 -15t-47 14q-25 17 -33 40.5t-5 51.5q4 55 26 111q5 14 -5 27q-24 26 -32 54.5t-2 54.5t25.5 48t51.5 36q28 11 51 2.5t37 -34.5
q12 -23 15.5 -47.5t2.5 -53.5zM111 35q1 -10 0.5 -19.5t9.5 -14.5t18 -1t16 9q20 12 37 27.5t32 32.5q14 15 -4 22q-20 8 -38.5 16.5t-37.5 17.5q-13 6 -16 -8q-6 -20 -11 -40.5t-6 -41.5zM151 271l-2.5 12.5t-3.5 15.5q-3 11 -13 10q-11 -2 -20 -10.5t-13.5 -20t-4 -23
t7.5 -20.5t13 -2q7 7 14 12t16 8q5 2 5.5 6t0.5 12z" />
    <glyph glyph-name="nine" unicode="9" horiz-adv-x="313" 
d="M280 289q-11 -14 -13.5 -28.5t-2.5 -30.5q1 -69 1 -137t7 -137q2 -19 -2 -33q-4 -9 -10 -15t-17 -7q-22 0 -30 20q-5 11 -6 23t-1 23q-2 45 -5 89.5t-3 89.5q0 2 -0.5 3.5t-0.5 3.5q-6 2 -9 -2t-6 -6q-20 -17 -41 -26t-47 0q-27 10 -42 30t-20 47q-4 22 -0.5 45t13 45
t24 40.5t33.5 30.5q23 15 48 17t53 -1q35 -3 50 -23.5t27 -46.5v-14zM95 228q0 -40 17 -45q14 -3 21.5 4.5t14.5 15.5q16 19 25 40.5t14 44.5q3 16 -1.5 21.5t-21.5 3.5q-13 -1 -27 -10q-21 -15 -30 -35t-12 -40z" />
    <glyph glyph-name="colon" unicode=":" horiz-adv-x="130" 
d="M97 23q1 -13 -8 -21.5t-22 -8.5q-28 0 -30 28q0 13 8.5 22t19.5 9q13 1 22.5 -7.5t9.5 -21.5zM60 215q-13 0 -21.5 8.5t-8.5 21.5q0 12 8.5 20.5t20.5 9.5q13 0 22 -8.5t9 -21.5t-8.5 -21.5t-21.5 -8.5z" />
    <glyph glyph-name="semicolon" unicode=";" horiz-adv-x="158" 
d="M125 24q-5 -25 -14 -50.5t-24 -48.5q-14 -21 -40 -10q-10 5 -15 15.5t0 22.5q9 23 18 45.5t14 46.5q2 12 13 17t22 2q26 -5 26 -40zM70 284q14 0 24.5 -9.5t11.5 -23.5q0 -13 -8.5 -22t-20.5 -10q-14 0 -25 10.5t-12 24.5q0 13 8 21.5t22 8.5z" />
    <glyph glyph-name="less" unicode="&#x3c;" horiz-adv-x="384" 
d="M262 310q17 1 26.5 -12.5t3.5 -29.5q-4 -11 -11 -17.5t-15 -13.5q-58 -53 -121 -106q-2 -2 -6 -4t-2 -7q2 -4 5.5 -4.5t7.5 -1.5q44 -13 85 -30.5t83 -37.5l8 -4t8 -5q11 -7 14 -18t-3 -22q-12 -24 -37 -15q-14 5 -27 11t-27 12q-45 21 -91.5 37.5t-95.5 24.5
q-14 3 -23.5 9.5t-12.5 20.5t3.5 23.5t16.5 17.5q46 35 89 73.5t86 76.5q8 8 16.5 14.5t19.5 7.5z" />
    <glyph glyph-name="equal" unicode="=" horiz-adv-x="419" 
d="M188 26h-61t-61 1q-17 0 -26.5 8t-9.5 22q0 25 24 31q20 5 38 5q58 1 115.5 1t114.5 -4q9 -1 17 -3t14 -8q15 -17 7 -34q-5 -12 -14.5 -17t-21.5 -3q-34 2 -67.5 1.5t-68.5 -0.5zM147 220q48 -2 98 -5.5t101 -9.5q2 -1 4.5 -1t4.5 -1q15 -4 22.5 -14t5.5 -24
q-2 -12 -12.5 -19.5t-25.5 -5.5q-45 5 -90.5 8.5t-91.5 5.5q-22 1 -46 0q-6 -1 -12.5 -1.5t-13.5 0.5q-30 2 -33 28q-2 13 6.5 22.5t22.5 13.5q14 3 28 2.5t32 0.5z" />
    <glyph glyph-name="greater" unicode="&#x3e;" horiz-adv-x="384" 
d="M117 310q11 -1 19 -7.5t16 -14.5q44 -38 86.5 -76.5t88.5 -73.5q11 -8 17.5 -17.5t3.5 -23.5t-12.5 -20.5t-23.5 -9.5q-49 -8 -95.5 -24.5t-91.5 -37.5q-14 -6 -27 -12t-27 -11q-26 -10 -38 15q-5 11 -2 22t14 18q4 3 8 5l8 4q41 20 82.5 37.5t85.5 30.5q3 1 7 1.5t5 4.5
q2 5 -1.5 7t-6.5 4q-30 26 -60 52.5t-60 53.5q-8 7 -15 13.5t-11 17.5q-6 16 3 29.5t27 12.5z" />
    <glyph glyph-name="question" unicode="?" horiz-adv-x="297" 
d="M263 337q-2 -32 -12 -59.5t-22 -53.5q-14 -33 -29.5 -65.5t-23.5 -68.5q-4 -17 -5.5 -34t0.5 -35q2 -16 -4.5 -26t-18.5 -13q-29 -5 -39 26q-5 17 -4.5 33t2.5 33q8 50 27.5 95t40.5 90q7 16 13 31.5t9 32.5q9 55 -45 46q-20 -4 -35.5 -12.5t-19.5 -32.5q-5 -23 -30 -23
q-23 1 -30 26q-4 13 -1 24t9 22q11 19 31 33t43.5 21.5t47.5 7.5t44 -9q29 -14 39.5 -37.5t12.5 -51.5zM159 -136q-13 0 -21.5 8.5t-9.5 21.5q0 12 8 20.5t21 9.5t22 -7.5t9 -21.5q1 -13 -7.5 -21.5t-21.5 -9.5z" />
    <glyph glyph-name="at" unicode="@" horiz-adv-x="455" 
d="M352 182q6 20 5.5 37t-2.5 34q-6 36 -16 70.5t-31 66.5q-9 13 -22 25q-44 41 -91 3q-25 -22 -41.5 -49t-27.5 -57q-26 -68 -30.5 -136.5t19.5 -137.5q8 -21 18 -40.5t26 -36.5q46 -48 106 -21q13 6 25 12.5t23 15.5q6 6 12 9q24 14 42 -6q8 -9 7.5 -21t-10.5 -21
q-34 -30 -73 -49t-87 -12q-41 5 -70 28t-49 57q-36 60 -48.5 125.5t-2.5 134.5q8 60 28 115.5t58 103.5q4 4 7 7.5t7 7.5q25 28 53.5 41.5t57 12.5t55.5 -16t50 -45q44 -59 60 -125t8 -139q-2 -14 -6 -25q-6 -18 -18.5 -29t-27 -14t-29.5 3t-28 21q-2 2 -2.5 3t-2.5 3
l-10.5 13.5t-7 4.5t-7 -5l-10.5 -15q-10 -15 -20.5 -29.5t-24.5 -26.5q-14 -11 -30 -15.5t-33 3.5q-19 9 -27.5 24.5t-6.5 34.5q4 48 19.5 90t53.5 75q14 13 31.5 19.5t34.5 -2.5q22 -12 42 -28t25 -44q3 -14 7 -27.5t12 -27.5zM196 147q14 16 25 33.5t21 35.5q7 12 -3 17
q-6 3 -9 -0.5t-5 -7.5q-13 -17 -20 -37t-9 -41z" />
    <glyph glyph-name="A" unicode="A" horiz-adv-x="293" 
d="M0 -2q3 29 8.5 60t11.5 63q2 8 1 14.5t-8 13.5q-12 12 -9.5 26.5t18.5 21.5q9 4 12.5 10t5.5 14q9 45 20 89t27 87q5 13 12 25.5t25 11.5q16 -1 33.5 -9.5t24.5 -27.5q8 -23 14.5 -46.5t11.5 -47.5l51 -270q8 -38 -22 -44q-14 -4 -25 4t-15 25q-6 25 -10.5 50t-9.5 50
q-2 11 -7 16.5t-17 3.5q-23 -2 -42 1q-14 1 -19.5 -5t-7.5 -18q-5 -31 -10.5 -61.5t-9.5 -62.5q-1 -6 -2 -12.5t-5 -11.5q-14 -20 -35 -13q-23 6 -22 43zM134 325q-11 -27 -18.5 -54.5t-9.5 -56.5q0 -7 4.5 -9t10.5 -1.5t12.5 1t11.5 -1.5t9.5 -0.5t4.5 9.5v2
q-5 29 -10.5 56.5t-14.5 54.5z" />
    <glyph glyph-name="B" unicode="B" horiz-adv-x="296" 
d="M0 278v104q2 60 56 37q9 -4 20 1q25 8 47.5 4.5t41.5 -23.5q20 -20 26 -44t-4 -51q-5 -14 -2.5 -21t17.5 -12q29 -9 41.5 -31t16.5 -50q4 -27 -5 -61t-28 -65t-47 -54.5t-62 -29.5q-13 -2 -23.5 -0.5t-19.5 11.5q-6 7 -16 4q-43 -11 -46 33q-5 64 -10 126t-3 122zM69 155
q2 -27 3.5 -52.5t3.5 -51.5q0 -5 0.5 -9t8.5 -2q22 3 43 16.5t37 33t24.5 43t7.5 46.5q-1 11 -4.5 21t-14.5 14q-26 8 -48 -8l-7.5 -7.5t-7.5 -8.5q-5 -5 -11 -9t-14 -2q-16 2 -20 -4.5t-1 -19.5zM65 242q25 15 39 35.5t22 46.5q4 14 -1 23.5t-16 11.5q-12 2 -27.5 -6.5
t-16.5 -19.5q-1 -22 -0.5 -44.5t0.5 -46.5z" />
    <glyph glyph-name="C" unicode="C" horiz-adv-x="251" 
d="M0 193q-2 65 15 128q6 25 17 46.5t31 38.5q19 17 39.5 22t43.5 -6q42 -18 64 -57q7 -14 7 -32q1 -15 -7 -25t-22 -11q-28 -3 -34 28q-3 18 -15 27q-14 12 -24 10.5t-21 -17.5q-7 -10 -11 -20.5t-7 -21.5q-11 -52 -12.5 -103.5t12.5 -103.5q5 -19 12 -35q10 -20 20 -25
t33 -1q25 3 35 -17q11 -23 -10 -39q-28 -23 -65 -10q-44 15 -67 57q-21 40 -27.5 81.5t-6.5 85.5z" />
    <glyph glyph-name="D" unicode="D" horiz-adv-x="333" 
d="M300 224q-2 -43 -18 -79.5t-44 -68.5q-38 -44 -88 -76q-13 -8 -27 -12.5t-30 -2.5q-17 2 -25.5 9.5t-10.5 25.5q-2 19 -3 37.5t-2 37.5q-2 60 -7 119t-9 119q0 8 -2.5 12.5t-13.5 0.5q-22 -8 -35 13q-11 18 2 38q4 5 8 9t9 6q10 5 18.5 12t14.5 18q6 12 19 13t24 -7
q6 -5 11.5 -7.5t13.5 -2.5q131 -3 177 -127q8 -20 13 -42t5 -45zM233 224q1 50 -26 94q-16 26 -38.5 40t-53.5 14q-10 0 -14 -3.5t-2 -14.5q3 -27 5 -54.5t4 -55.5q2 -43 5 -85.5t5 -85.5q1 -18 15 -7q8 7 17 13.5t17 14.5q28 27 47.5 58t18.5 72z" />
    <glyph glyph-name="E" unicode="E" horiz-adv-x="371" 
d="M163 53q24 2 50.5 12.5t52.5 22.5q6 3 12 5.5t12 4.5q23 5 33 -14q11 -21 -5 -37q-8 -9 -19 -14q-32 -16 -65.5 -28t-69.5 -17q-41 -6 -69 12.5t-39 58.5q-5 20 -7 39.5t-4 39.5q-1 6 -3 11t-7 10q-24 21 -3 46q5 5 7.5 10t1.5 12q-2 20 -2.5 40.5t-2.5 40.5
q-2 12 -13 16q-22 6 -23 30q-1 11 5 18.5t14 14.5q17 15 36 13.5t38 -0.5q23 2 46 3t46 3q36 1 39 -28q3 -28 -32 -36q-17 -3 -34.5 -3.5t-35.5 -1.5q-17 -1 -20 -4.5t-2 -20.5q2 -18 3 -36l2 -36q1 -14 5 -17.5t19 -0.5q8 2 15.5 3.5t15.5 2.5q17 2 27.5 -5t12.5 -21
q3 -29 -29 -37q-12 -2 -24 -4.5t-23 -4.5q-15 -3 -14 -18q2 -14 3.5 -27.5t3.5 -27.5q3 -19 11.5 -24.5t34.5 -5.5z" />
    <glyph glyph-name="F" unicode="F" horiz-adv-x="353" 
d="M286 348q-38 6 -76.5 5t-77.5 0q-11 0 -16 -4t-2 -16q2 -11 2.5 -23t1.5 -23q1 -9 5 -11.5t12 -1.5q15 1 30.5 1.5t30.5 0.5q15 -1 24.5 -9t11.5 -22q1 -11 -7 -21t-22 -14q-13 -3 -26 -2.5t-26 -0.5q-18 -2 -22 -6t-2 -22q5 -40 8.5 -79.5t11.5 -79.5q3 -14 -4 -25.5
t-21 -14.5q-13 -4 -24 3t-16 23q-8 24 -10.5 49t-5.5 51q-2 22 -4 43.5t-4 42.5q0 10 -8 18q-21 20 -5 45q4 6 5 18t-0.5 25t-4.5 24.5t-8 17.5q-2 3 -5.5 4t-6.5 2q-22 6 -25 29q-2 24 20 33q16 8 34 21q15 12 30 2q14 -11 29.5 -11t32.5 2q73 4 147 -6q24 -5 31 -25
q6 -18 -5 -31t-33 -12z" />
    <glyph glyph-name="G" unicode="G" horiz-adv-x="311" 
d="M0 177q3 49 13 96t39 89q22 30 51 45t67 9q26 -4 37.5 -23.5t3.5 -43.5q-8 -19 -25 -22q-22 -2 -30 15q-5 12 -12 12t-16 -5q-19 -9 -28 -28q-24 -43 -33.5 -88.5t-0.5 -94.5q12 -60 71 -75q12 -3 26 -1q21 2 28.5 11.5t5.5 30.5q-1 5 -2 9t-1 9q-1 16 -17 13
q-8 -1 -16.5 -1.5t-16.5 0.5q-25 2 -28 27q-2 11 5 20.5t19 11.5q31 6 62 9q36 1 48 -41q6 -26 9 -51t5 -51q2 -20 4.5 -40.5t7.5 -40.5q8 -35 -21 -43q-30 -8 -40 29q-2 8 -3.5 15.5t-2.5 15.5q-1 7 -4 9.5t-12 0.5q-31 -8 -60.5 -3.5t-54 19t-43 38.5t-27.5 55
q-5 16 -7 31t-1 32z" />
    <glyph glyph-name="H" unicode="H" horiz-adv-x="361" 
d="M222 287l-3 66q-1 5 -2 9.5t-4 9.5q-5 8 -5 16.5t3 17.5q5 15 16 24.5t24 7.5q27 -3 30 -38q2 -21 2.5 -42t1.5 -41q1 -24 2.5 -47.5t4.5 -46.5q2 -19 1.5 -38.5t1.5 -38.5q3 -33 8.5 -66t13.5 -65q4 -14 -2 -24.5t-17 -14.5q-12 -4 -23 1t-17 18l-6 15q-8 35 -14 70.5
t-8 71.5q-2 22 -5.5 25.5t-25.5 1.5l-28 -4l-28 -4q-14 -1 -17.5 -7.5t-1.5 -18.5q6 -36 12 -72.5t11 -73.5q3 -14 3 -27q1 -14 -6.5 -24t-18.5 -12q-13 -2 -23.5 5t-13.5 21q-5 28 -9 55.5t-9 55.5l-9 61q-1 6 -3.5 9t-10.5 -1q-14 -7 -25.5 -3t-17.5 15q-13 25 11 44
q5 5 7 5q21 5 23.5 18t-0.5 31q-5 28 -8 55.5t-6 55.5q-1 7 -1.5 14t0.5 14q2 31 30 33t33 -31l15 -125q1 -14 2.5 -21t5.5 -10t11 -2.5t21 2.5q25 4 51 6q27 2 23 27q-1 4 -0.5 8t0.5 9z" />
    <glyph glyph-name="I" unicode="I" horiz-adv-x="129" 
d="M66 366q5 -83 11.5 -165t17.5 -164q1 -4 1 -13q2 -26 -23 -33q-11 -3 -21.5 3t-15.5 18q-7 22 -8 39q-10 87 -17 172.5t-11 173.5v11t2 11q5 26 30 27q12 1 21 -6t12 -21q3 -13 1.5 -26t-0.5 -27z" />
    <glyph glyph-name="J" unicode="J" horiz-adv-x="269" 
d="M228 141q1 -30 -7 -59.5t-27 -55.5q-18 -25 -41 -37t-47.5 -12.5t-49 10.5t-45.5 33q-11 11 -11 23.5t8 21.5q19 19 45 -1q2 -2 4 -3t4 -3q29 -23 53 -17.5t40 39.5q11 22 12.5 45t-1.5 47q-8 52 -22.5 101.5t-39.5 96.5q-8 15 -4.5 28.5t16.5 19.5q12 7 24 2t20 -20
q13 -24 25.5 -57t22.5 -69t15.5 -71t5.5 -62z" />
    <glyph glyph-name="K" unicode="K" horiz-adv-x="410" 
d="M74 237q21 26 42.5 50.5t42.5 49.5q14 17 27.5 34.5t27.5 34.5q8 9 17.5 14t21.5 0q16 -6 19.5 -21.5t-8.5 -31.5q-19 -25 -38.5 -49t-39.5 -49l-26 -30l-26 -30q-6 -7 -5.5 -11t9.5 -9q40 -20 81 -36.5t83 -30.5q12 -5 24 -9.5t23 -9.5q14 -7 19.5 -19t0.5 -25
q-12 -26 -44 -15q-57 22 -114.5 43t-111.5 50q-4 2 -8 5t-8 0q-5 -4 -4.5 -9t1.5 -10q2 -25 5 -49.5t5 -49.5q3 -38 -28 -41q-14 -2 -23.5 7.5t-11.5 28.5q-11 91 -20 182t-7 183q0 45 31 47q16 0 25.5 -12.5t8.5 -35.5q-2 -36 0 -72t4 -71q2 -1 2.5 -1.5t2.5 -1.5z" />
    <glyph glyph-name="L" unicode="L" horiz-adv-x="263" 
d="M69 -14q-25 0 -37.5 8t-19.5 25q-4 11 -5.5 21.5t-2.5 21.5q-4 89 -3.5 176.5t-0.5 176.5q0 17 8.5 27.5t22.5 10.5q31 2 33 -38q4 -75 3 -150.5t0 -150.5q0 -10 0.5 -20t0.5 -21q1 -11 5 -15t17 1q21 8 42.5 14.5t43.5 14.5q16 6 30 2q19 -6 20 -24q2 -10 -1.5 -18.5
t-12.5 -11.5q-37 -16 -73.5 -28.5t-69.5 -21.5z" />
    <glyph glyph-name="M" unicode="M" horiz-adv-x="355" 
d="M238 277q-14 -26 -23.5 -51t-17.5 -50q-2 -9 -6.5 -17.5t-14.5 -13.5q-27 -14 -50 15q-13 17 -22.5 35t-19.5 38q-4 -5 -4.5 -9.5t-0.5 -9.5q-2 -47 -4 -93.5t-4 -94.5q0 -6 -0.5 -12t-1.5 -12q-4 -14 -15 -22.5t-24 -6.5q-14 2 -22.5 14t-7.5 28q5 69 8.5 136.5
t5.5 136.5q2 21 -8 37q-4 7 -4 18.5t3 23t8.5 21.5t12.5 15q11 8 24 6.5t22 -12.5t17.5 -22t14.5 -25q11 -23 22.5 -46t22.5 -46q6 1 7 5t3 7q11 27 24 53t29 51q8 13 21 28q9 9 19.5 14t24.5 0t20 -16t7 -25l3 -114v-231v-14t-2 -14q-4 -15 -14 -23.5t-24 -6.5t-22 13
t-7 27q2 63 1.5 124.5t-0.5 124.5v6.5t-1 9.5z" />
    <glyph glyph-name="N" unicode="N" horiz-adv-x="341" 
d="M225 128q4 50 3.5 98t0.5 96v15t1 14q2 15 11.5 23.5t21.5 7.5q13 -1 21.5 -10.5t8.5 -23.5v-94q-1 -44 -0.5 -86.5t-3.5 -85.5q-1 -12 -2.5 -24t-5.5 -23q-8 -22 -27 -26.5t-36 12.5q-16 17 -28.5 36t-24.5 39q-23 38 -43 76t-39 77q-2 5 -4.5 9t-5.5 10q1 -63 5.5 -122
t7.5 -119v-10.5t-1 -11.5q-5 -30 -32 -30q-12 0 -20 8.5t-10 22.5q-2 12 -2.5 24t-1.5 24q-3 50 -6 98.5t-5 98.5q-2 32 -3.5 63t-3.5 63q-1 8 -1 16.5t2 16.5q6 19 23 23.5t31 -9.5q4 -4 7.5 -7t8.5 -5q9 -4 13.5 -10.5t7.5 -15.5q25 -67 57.5 -130t68.5 -125z" />
    <glyph glyph-name="O" unicode="O" horiz-adv-x="326" 
d="M286 174q-1 -34 -13 -71.5t-43 -69.5q-23 -24 -47 -34t-48 -7.5t-46.5 15.5t-40.5 35q-21 25 -30.5 55t-14.5 62q-5 42 -2 82t11 81q14 62 70 87q15 8 29.5 15t32.5 5q32 -2 55 -19t38 -44q20 -35 34 -88t15 -104zM67 216q0 -11 -0.5 -21t0.5 -20q3 -29 11 -56t31 -47
q18 -16 36.5 -15.5t35.5 17.5q14 14 22.5 31t13.5 37q10 44 1 84.5t-24 80.5q-5 13 -10.5 25t-16.5 21q-8 8 -16.5 10t-18.5 -8q-10 -8 -20 -8q-15 -1 -23 -9t-12 -22q-7 -25 -9 -49.5t-1 -50.5z" />
    <glyph glyph-name="P" unicode="P" horiz-adv-x="258" 
d="M59 468q10 -6 20.5 -7.5t22.5 -1.5q28 0 52 -8.5t40.5 -25t24.5 -40t3 -53.5q-9 -54 -36 -98t-72 -76q-14 -10 -13 -27q3 -31 5 -62l4 -62q1 -16 -7 -26.5t-22 -12.5t-23.5 6.5t-11.5 25.5q-3 24 -4 48.5t-3 49.5q-1 11 -3.5 20.5t-18.5 12.5q-8 2 -12 9.5t-5 16.5
q-2 20 17 28q11 4 13.5 10.5t2.5 16.5q-2 52 -4 103.5t-5 103.5q-1 17 4.5 29.5t22.5 19.5h8zM97 233q1 -1 2 -1t2 -1q23 25 38.5 52.5t18.5 61.5q2 23 -12.5 36.5t-37.5 12.5q-16 -1 -16 -16q2 -36 2.5 -72.5t2.5 -72.5z" />
    <glyph glyph-name="Q" unicode="Q" horiz-adv-x="363" 
d="M0 187q4 53 19.5 100t49.5 89q18 22 42 36q35 21 66 -7q4 -4 8.5 -6t9.5 -4q82 -33 109 -117q18 -53 17 -104t-32 -100q-8 -10 -1 -25l14 -40l14 -40q6 -17 2.5 -29.5t-16.5 -17.5q-29 -11 -45 23q-12 27 -21 57q-3 8 -6.5 9.5t-10.5 -3.5q-1 -1 -2 -1q-38 -23 -71 -24
t-60 13t-46.5 40t-28.5 58q-6 23 -9.5 46t-1.5 47zM110 319q-5 -2 -5 -4q-30 -50 -38.5 -102.5t9.5 -108.5q15 -45 48.5 -54t71.5 19q14 11 7 27q-12 29 -23.5 57t-23.5 57q-11 28 -22.5 55t-23.5 54zM251 153q9 23 5.5 52.5t-14.5 56t-29 46t-38 22.5q19 -45 37.5 -88
t38.5 -89z" />
    <glyph glyph-name="R" unicode="R" horiz-adv-x="365" 
d="M155 101h-44q-16 0 -15 -16q0 -7 0.5 -13.5t1.5 -13.5q1 -8 1 -15.5t-2 -15.5q-4 -13 -13 -20.5t-20 -6.5q-12 1 -20 8.5t-10 21.5q-2 15 -2.5 30.5t-1.5 31.5q-5 53 -9.5 105t-6.5 105q-1 14 -2.5 27t-9.5 27q-3 5 -2 14.5t4.5 19.5t8.5 18.5t10 11.5q8 5 16 6t16 -4
q10 -8 20.5 -8.5t21.5 0.5q39 5 75 -1q40 -7 54.5 -32t-0.5 -62q-16 -38 -40 -70.5t-47 -64.5q-3 -4 -7 -7t-2 -8t7.5 -4.5t10.5 1.5q33 1 65.5 2t65.5 3q8 1 15 0.5t14 -2.5q25 -8 25 -31t-25 -30q-9 -3 -18 -3h-135v-4zM83 225q24 26 44 53.5t36 57.5q7 13 -8 13h-64
q-14 0 -14 -12q2 -28 3 -55.5t3 -56.5z" />
    <glyph glyph-name="S" unicode="S" horiz-adv-x="236" 
d="M200 61q-29 -45 -70.5 -55t-89.5 14q-12 6 -17.5 16.5t-1.5 21.5q4 12 15 17.5t25 1.5t28 -7.5t28 -1.5t16.5 7t-3.5 16t-14 20t-17 17q-26 23 -49.5 47.5t-37.5 56.5q-11 24 -12 48.5t6.5 46t23 39t38.5 27.5q37 15 72 2q20 -7 29 -25.5t2 -38.5q-6 -20 -27 -23
q-22 -2 -30 17q-5 13 -13 12.5t-16 -6.5q-15 -10 -20 -29t2 -39q7 -21 20 -37.5t30 -30.5q27 -23 49 -48.5t34 -59.5v-26z" />
    <glyph glyph-name="T" unicode="T" horiz-adv-x="450" 
d="M200 314q7 -68 13.5 -134.5t17.5 -133.5q2 -9 4.5 -18t4.5 -18q8 -34 -20 -44q-13 -4 -24.5 2.5t-16.5 22.5q-11 30 -15.5 61.5t-7.5 63.5q-6 52 -11.5 103.5t-10.5 103.5q-1 20 -21 19l-57 -6q-4 0 -8 -0.5t-8 -0.5q-17 0 -28 8t-12 22q-2 30 35 35q17 2 33 3t33 2
q18 1 26 17q9 20 27 21t29 -17q5 -8 11 -11t15 -3h123q24 0 48 -6q14 -5 21 -15t5 -22q-2 -13 -13 -20.5t-26 -4.5q-37 5 -73.5 4.5t-73.5 -1.5q-15 -1 -19.5 -6.5t-0.5 -19.5q1 -2 0.5 -3.5t-0.5 -3.5z" />
    <glyph glyph-name="U" unicode="U" horiz-adv-x="293" 
d="M183 257q2 27 -1 54.5t-2 55.5q0 9 1.5 17t8.5 14q11 11 26 8t22 -18q4 -7 4 -16q1 -29 2.5 -58.5t2 -58.5t-1 -58.5t-6.5 -58.5q-6 -34 -17.5 -65t-37.5 -56q-29 -27 -60.5 -25.5t-57.5 31.5q-27 32 -38 69t-18 77q-8 42 -9.5 84.5t1.5 86.5q2 24 12 36.5t28 10.5
q17 -2 27 -18t3 -36q-15 -46 -9 -90t13 -89q4 -20 10 -40t17 -38q13 -20 24 -20.5t25 19.5q18 27 23 62q5 29 7.5 58.5t0.5 61.5z" />
    <glyph glyph-name="V" unicode="V" horiz-adv-x="283" 
d="M133 155l27 141q4 23 8 45.5t11 44.5q3 11 7 20q7 14 18 20.5t23 1.5q14 -4 20 -15t2 -28q-19 -70 -29.5 -141t-28.5 -141l-10 -38t-10 -39q-2 -10 -7 -18.5t-15 -13.5q-15 -8 -29.5 -2t-22.5 25q-11 28 -18.5 56t-14.5 57q-11 49 -21 97t-21 97q-1 5 -3 9t-4 9
q-12 17 -14 36t1 39q3 25 30 30q14 2 23 -5t14 -18q6 -13 8.5 -27t5.5 -28q11 -54 22 -107t28 -107z" />
    <glyph glyph-name="W" unicode="W" horiz-adv-x="376" 
d="M100 208q4 15 7 29t7 28q4 13 12 22t22 11t24.5 -5t18.5 -19q14 -22 22.5 -46t17.5 -49q4 -11 8 -22.5t11 -22.5q2 20 3.5 38.5t3.5 37.5q2 28 5 55.5t9 54.5q2 10 5 19.5t8 17.5q7 11 18.5 15t22.5 -1t17 -16t1 -23q-17 -45 -19 -90.5t-7 -91.5q-3 -31 -5.5 -61
t-5.5 -61q-2 -13 -6 -23q-10 -20 -28.5 -22.5t-33.5 14.5q-17 20 -26 46q-12 32 -24 65t-25 68q-6 -17 -7.5 -33.5t-4.5 -31.5q-3 -16 -5 -31.5t-6 -30.5q-9 -39 -39 -41q-14 0 -26 10.5t-17 29.5q-10 33 -14 66.5t-9 68.5l-10 76l-10 76q-2 10 -3.5 19.5t-6.5 19.5t-5 20
t2 21q5 23 28 26q11 2 19 -3.5t13 -14.5q5 -10 7 -20t4 -21q7 -40 12 -80t10 -81q1 -3 1 -6.5t4 -6.5z" />
    <glyph glyph-name="X" unicode="X" horiz-adv-x="356" 
d="M289 39q-15 2 -27 15q-23 26 -45 51t-44 51q-8 9 -13 8.5t-11 -11.5l-38 -70t-35 -73q-2 -5 -5 -9.5t-7 -8.5q-16 -19 -37 -8q-21 10 -16 34q2 8 5 15.5t7 15.5q38 83 84 158q5 9 5 16t-7 15q-24 29 -45.5 58.5t-48.5 55.5q-11 9 -11 22.5t8 22.5q8 10 21.5 10.5
t24.5 -9.5q22 -18 39 -40l34 -44q9 -11 14 -16.5t8.5 -5.5t7.5 6.5t11 18.5q14 23 26.5 46.5t25.5 47.5q21 38 48 23q14 -8 16 -22.5t-8 -32.5q-18 -34 -36.5 -67t-37.5 -66q-5 -8 -5 -14.5t7 -14.5q25 -27 49 -55t49 -56l10 -12t8 -14q5 -15 -4.5 -28t-26.5 -13z" />
    <glyph glyph-name="Y" unicode="Y" horiz-adv-x="291" 
d="M129 257q13 28 25 54.5t23 54.5l6 12t8 11q18 16 40 5q21 -12 17 -35q-1 -8 -4 -15t-7 -15q-39 -82 -72.5 -166t-58.5 -173l-4 -12t-6 -11q-11 -22 -36 -16q-26 6 -24 32q0 8 2 15l4 14q20 73 48 148q7 17 -4 32q-23 35 -42.5 73t-38.5 76l-3 9q-5 14 0.5 27t18.5 18
q12 5 23.5 0t19.5 -19q14 -26 27.5 -53t27.5 -53q2 -4 3.5 -7.5t6.5 -5.5z" />
    <glyph glyph-name="Z" unicode="Z" horiz-adv-x="356" 
d="M218 335q-5 4 -10 3.5t-10 -0.5h-125q-14 0 -26 3q-23 5 -23 27q-1 23 22 31q5 2 11.5 2h12.5q46 1 91.5 1h90.5q38 -1 50 -22t-9 -53q-23 -35 -49 -67.5t-52 -66.5q-16 -20 -31.5 -39t-30.5 -39q-3 -4 -6.5 -7.5t-4.5 -9.5q4 -4 7.5 -2.5t6.5 2.5q37 7 73 14l72 14
q38 6 45 -23q3 -14 -5.5 -25t-26.5 -15q-17 -4 -33.5 -6.5t-33.5 -6.5q-44 -8 -86 -18t-84 -25q-34 -12 -48 11q-8 13 -5 24.5t11 22.5q46 64 95 125t97 124q4 5 8 9.5t6 11.5z" />
    <glyph glyph-name="bracketleft" unicode="[" horiz-adv-x="287" 
d="M254 -53q2 -14 -6.5 -24.5t-24.5 -12.5q-18 -3 -36 -5t-36 -1q-5 0 -11 0.5t-11 -0.5q-24 0 -34.5 10t-11.5 34q-5 96 -17 190t-23 190q-4 37 -8.5 74t-4.5 75q0 53 52 43q40 -8 75 -8q5 0 10.5 -0.5t10.5 -1.5q16 -2 24.5 -12t6.5 -24q-2 -13 -12.5 -21t-25.5 -7
q-14 1 -29 1.5t-30 2.5q-11 2 -14 -1.5t-1 -14.5q7 -54 13 -108l12 -108q6 -58 12.5 -115.5t10.5 -115.5q1 -20 19 -17q13 2 25.5 2.5t24.5 1.5q17 2 27.5 -5.5t12.5 -21.5z" />
    <glyph glyph-name="backslash" unicode="\" horiz-adv-x="411" 
d="M30 434q-2 22 19 31q19 7 35 -8q4 -5 7.5 -10.5t5.5 -11.5q23 -66 57 -125t66 -119q30 -57 64.5 -111t72.5 -106q5 -6 9 -12.5t7 -14.5q4 -11 2.5 -20.5t-11.5 -17.5q-10 -7 -22 -5.5t-20 11.5q-9 10 -16 20t-15 21q-76 106 -137 219t-117 231q-3 7 -5 13.5t-2 14.5z" />
    <glyph glyph-name="bracketright" unicode="]" horiz-adv-x="287" 
d="M30 -53q2 14 12.5 21.5t27.5 5.5q12 -1 24.5 -1.5t24.5 -2.5q19 -3 19 17q5 58 11 115.5t13 115.5l12 108t13 108q1 11 -2 14.5t-14 1.5q-14 -2 -29 -2.5t-30 -1.5t-25 7t-12 21q-2 14 6.5 24t24.5 12q5 1 10 1.5t10 0.5q37 0 75 8q53 10 53 -43q0 -38 -4.5 -75t-9.5 -74
q-11 -96 -22.5 -190t-16.5 -190q-1 -24 -12 -34t-34 -10q-6 1 -11.5 0.5t-10.5 -0.5q-19 -1 -36.5 1t-35.5 5q-16 2 -24.5 12.5t-6.5 24.5z" />
    <glyph glyph-name="asciicircum" unicode="^" horiz-adv-x="339" 
d="M160 416q-19 -41 -38 -76.5t-28 -75.5q-8 -39 -38 -33q-14 3 -21.5 16.5t-3.5 30.5q5 26 15 49.5t21 46.5q13 28 26 54.5t26 53.5q12 26 34 28.5t36 -20.5q33 -56 65 -112t54 -118q16 -44 -16 -55q-30 -9 -45 36t-39.5 86t-47.5 89z" />
    <glyph glyph-name="underscore" unicode="_" horiz-adv-x="432" 
d="M110 20q62 -5 125.5 -4.5t128.5 -1.5q15 0 25 -8t11 -22q1 -13 -7 -22t-25 -11t-34 -2.5t-34 0.5q-54 4 -107 3t-107 1q-16 0 -31 3q-25 6 -25 32q0 24 26 29q12 3 25 2.5t29 0.5z" />
    <glyph glyph-name="grave" unicode="`" horiz-adv-x="178" 
d="M64 486q8 -1 15.5 -5.5t11.5 -14.5q11 -29 26.5 -54.5t30.5 -52.5q7 -13 6 -28q-3 -19 -23 -25t-32 12q-19 29 -36.5 58t-29.5 61q-8 19 1.5 33.5t29.5 15.5z" />
    <glyph glyph-name="a" unicode="a" horiz-adv-x="297" 
d="M178 145q-4 -6 -6 -10t-4 -7q-13 -26 -33 -49t-43.5 -30.5t-45.5 2.5q-23 10 -36 35t-9 54q13 97 85 164q29 26 60 21.5t54 -36.5q11 -17 16.5 -34.5t10.5 -35.5q9 -36 17.5 -72.5t16.5 -73.5q1 -4 1.5 -7t0.5 -7q1 -14 -6 -23.5t-18 -11.5q-11 -3 -22 3t-15 19
q-5 19 -9 37.5t-9 38.5q-4 10 -6 23zM136 259q-3 -1 -7 -3q-26 -26 -42.5 -55.5t-20.5 -66.5q-1 -5 -1 -11t7 -8q6 -2 10 2t7 9q23 29 36 61.5t11 71.5z" />
    <glyph glyph-name="b" unicode="b" horiz-adv-x="242" 
d="M206 206q0 -23 -7 -43.5t-18 -40.5q-17 -31 -38 -58.5t-47 -52.5q-9 -9 -19.5 -13t-23.5 3q-11 7 -13.5 17t0.5 22q2 8 -0.5 14.5t-4.5 14.5q-17 96 -27.5 191.5t-6.5 193.5q2 51 35 49q16 -1 26 -15.5t7 -36.5q-5 -38 -4 -74.5t3 -74.5q1 -11 3.5 -14t13.5 5
q30 19 62 8.5t48 -44.5q11 -25 11 -51zM98 116q16 18 27 37.5t16 42.5q3 18 -5 34t-21 4q-9 -9 -12 -20q-9 -24 -8.5 -48.5t3.5 -49.5z" />
    <glyph glyph-name="c" unicode="c" horiz-adv-x="238" 
d="M66 193q-3 -37 22 -70q23 -32 53 -5q5 4 9.5 8t10.5 8q21 11 37 -5t5 -37q-8 -16 -22.5 -27.5t-32.5 -17.5t-36.5 -5.5t-34.5 8.5q-23 11 -37.5 29.5t-24.5 41.5q-17 42 -15 83t21 82q14 31 38.5 42.5t52.5 1.5q22 -8 29 -30t-5 -42q-8 -12 -20.5 -15t-24.5 6
q-9 8 -12.5 5t-6.5 -11q-3 -12 -5 -24.5t-1 -25.5z" />
    <glyph glyph-name="d" unicode="d" horiz-adv-x="306" 
d="M148 356q17 -4 20.5 -0.5t1.5 24.5l-8 86t-2 87q0 7 0.5 13t2.5 12q8 17 24 20.5t28 -9.5q9 -9 14 -20.5t1 -22.5q-8 -26 -5.5 -51t4.5 -50q5 -69 11.5 -137t13.5 -137q2 -25 5.5 -49.5t6.5 -49.5q1 -6 1.5 -11.5t-1.5 -10.5q-6 -22 -26 -25q-24 -1 -33 19q-5 10 -5.5 20
t-2.5 20q-3 17 -5 18t-16 -8q-17 -14 -37 -20q-33 -11 -63 -2.5t-50 37.5q-29 40 -28 81t21 83q40 80 127 83zM65 194q0 -5 0.5 -9t1.5 -9q5 -32 28 -40.5t49 12.5q22 19 35 42q8 13 5 26q-1 8 -1 16.5t-1.5 16t-6.5 13.5t-17 9l-2 2q-11 14 -20 15.5t-23 -7.5
q-26 -14 -36 -37.5t-12 -49.5z" />
    <glyph glyph-name="e" unicode="e" horiz-adv-x="249" 
d="M90 141q-2 0 -6.5 2t-6.5 -3q-2 -4 0.5 -7.5t4.5 -7.5q9 -18 25 -31q14 -10 28 -14t31 3q15 5 26 1t16 -15q6 -13 1 -25t-19 -20q-24 -13 -48 -11t-47 14q-38 19 -62 54.5t-30.5 76.5t4.5 82.5t42 72.5q25 24 52.5 28.5t53.5 -12.5t36 -45t-1 -60q-7 -23 -19.5 -41.5
t-34.5 -30.5q-20 -12 -46 -11zM81 233q0 -18 10 -23q8 -5 19 2q21 19 21 46q-1 11 -10.5 17t-17.5 -2q-8 -9 -14 -19t-8 -21z" />
    <glyph glyph-name="f" unicode="f" horiz-adv-x="266" 
d="M134 342v-63q0 -17 17 -16q10 2 20 3t20 1q28 0 32 -25q5 -26 -22 -36q-21 -8 -43 -6q-14 1 -17.5 -5t-1.5 -18q5 -51 12.5 -101.5t16.5 -101.5q3 -9 3 -20q-1 -12 -6.5 -20.5t-18.5 -11.5q-12 -2 -22 3.5t-14 18.5q-5 23 -9 45.5t-9 45.5q-12 72 -18 145q0 17 -18 16
q-13 0 -25 -0.5t-25 -0.5q-32 -2 -35 24q-3 14 4 24t21 14q25 6 54 6q12 -1 16 4t3 16q-1 48 0.5 94.5t7.5 93.5q2 12 5 23.5t10 22.5q10 16 25.5 21t32.5 -2q22 -9 34.5 -30.5t7.5 -44.5q-2 -17 -12.5 -24.5t-27.5 -3.5q-9 2 -11.5 0t-3.5 -10q-1 -21 -2.5 -41.5
t-0.5 -39.5z" />
    <glyph glyph-name="g" unicode="g" horiz-adv-x="264" 
d="M150 125q-8 -10 -15 -20.5t-17 -18.5q-17 -15 -35 -22t-41 2q-21 9 -30.5 27t-11.5 40q-5 69 36 128q17 25 40.5 36t54.5 4q5 0 8 -1q16 -2 26 -3.5t15.5 -6.5t8.5 -14.5t6 -26.5q11 -47 19.5 -93t4.5 -94q-6 -100 -79 -165q-8 -6 -14 -10q-13 -8 -25.5 -6t-20.5 13
q-7 11 -4.5 23t13.5 21q42 34 56 77.5t10 94.5q-1 2 -1 4.5t-1 4.5q0 1 -3 6zM64 150q1 -5 0.5 -10t4.5 -7t8 2t5 8q14 17 21.5 35.5t11.5 39.5q1 5 1 11t-6 8t-10.5 -1t-8.5 -8q-14 -17 -19.5 -37.5t-7.5 -40.5z" />
    <glyph glyph-name="h" unicode="h" 
d="M73 293q9 11 15.5 19t14.5 15q16 16 35 15.5t35 -17.5q11 -10 17 -22t11 -25q14 -40 23 -80t16 -81q1 -2 1 -6q3 -39 -26 -44q-14 -2 -24.5 7t-13.5 29q-10 71 -33 142q-2 5 -3 9.5t-8 9.5q-11 -20 -17 -41.5t-11 -43.5q-3 -14 -4 -27t-1 -27q0 -16 -4 -29
q-8 -22 -30 -23q-20 0 -30 21q-5 10 -6 20t-3 21q-12 80 -19.5 159t-7.5 159q0 14 3 28q6 22 29 24q22 0 31 -20q4 -7 6.5 -14.5t0.5 -15.5q-8 -22 -5.5 -43.5t2.5 -44.5q1 -17 2.5 -35t3.5 -39z" />
    <glyph glyph-name="i" unicode="i" horiz-adv-x="144" 
d="M108 66q1 -13 -6.5 -22t-18.5 -11q-12 -2 -22 4t-14 19q-8 23 -13 46.5t-10 46.5q-5 26 -9 52.5t-12 52.5q-5 13 -3 26.5t4 26.5q3 16 12.5 24t22.5 6q28 -2 30 -34q0 -23 3 -46t7 -46q5 -33 11.5 -66t15.5 -65q2 -10 2 -14zM34 343q-13 2 -21 11t-7 22t10.5 21t22.5 6
t20.5 -11t6.5 -22q-2 -13 -10.5 -20.5t-21.5 -6.5z" />
    <glyph glyph-name="j" unicode="j" horiz-adv-x="251" 
d="M136 9q-1 28 -6 50.5t-12 44.5q-5 16 -10.5 39.5t-11 48t-11 48t-10.5 38.5q-4 9 -5 16q-7 21 -1 36t22 18t29.5 -8.5t15.5 -31.5q1 -9 3.5 -17.5t5.5 -16.5q8 -24 16.5 -56.5t16 -66t14 -66.5t9.5 -58q5 -39 -13.5 -75t-52.5 -56q-69 -40 -138 14q-13 11 -16.5 23
t4.5 23t21 12.5t27 -6.5q2 -1 2.5 -1.5t2.5 -1.5q15 -8 30.5 -13.5t33.5 5.5q37 23 34 58zM70 452q13 -1 21.5 -10t7.5 -22t-10 -21t-22 -7q-12 1 -20 9.5t-8 20.5q1 13 10 21.5t21 8.5z" />
    <glyph glyph-name="k" unicode="k" horiz-adv-x="304" 
d="M82 283q15 13 27.5 24.5t24.5 22.5q5 5 10 8.5t11 6.5q12 6 24 3.5t19 -13.5q12 -22 -8 -42q-17 -15 -33 -30l-32 -30l-8 -6t-2 -8q2 -4 6.5 -3.5t8.5 -0.5q21 -2 41.5 -3.5t41.5 -6.5q9 -2 18.5 -5t17.5 -8q24 -16 14 -40q-5 -11 -15 -16.5t-24 -0.5q-26 9 -53 11t-54 6
q-11 1 -15 -2t0 -15q5 -18 8 -36.5t11 -36.5q6 -14 1 -26.5t-18 -18.5t-25 -0.5t-19 19.5q-7 17 -10 34t-8 34q-5 21 -7.5 43t-15.5 42q-2 3 -2 7.5v8.5q5 33 2 65t-13 64q-5 16 -6 33t1 34q2 32 29 35q12 2 22 -6t14 -23q7 -25 9 -50.5t5 -51.5q1 -5 1 -9.5t1 -12.5z" />
    <glyph glyph-name="l" unicode="l" horiz-adv-x="155" 
d="M121 74q0 -34 -27 -37q-28 -3 -36 29q-17 82 -27 163q-8 67 -11.5 134.5t-10.5 135.5l-9 90q-2 18 5.5 29.5t21.5 13.5q15 2 25.5 -7.5t12.5 -28.5q5 -54 10 -106t8 -106q7 -148 36 -295q1 -5 1.5 -9t0.5 -6z" />
    <glyph glyph-name="m" unicode="m" horiz-adv-x="360" 
d="M164 278q4 8 7 15.5t8 15.5q8 15 20.5 25t31.5 9q19 -2 30.5 -13t19.5 -27q11 -24 16 -49.5t9 -51.5q5 -26 8 -52.5t7 -52.5q2 -17 -5 -29.5t-21 -14.5q-13 -2 -23.5 6.5t-13.5 26.5q-6 36 -11.5 72t-10.5 72q-2 14 -7 23q-6 -17 -8 -34t-2 -34q-2 -21 -1 -42.5t-2 -43.5
q-5 -36 -31 -38q-28 -2 -37 32q-9 33 -16 66t-18 65l-6 18t-11 19q-5 -14 -6.5 -26t-1.5 -23v-75t9 -74q5 -18 -2.5 -31.5t-21.5 -16.5t-27 6t-15 28q-8 63 -20 124t-12 125q0 6 0.5 12t1.5 12q5 18 19.5 24t30.5 -4q5 -3 9 -5.5t11 -0.5q24 7 40 1.5t31 -25.5
q5 -8 10.5 -16.5t10.5 -17.5z" />
    <glyph glyph-name="n" unicode="n" horiz-adv-x="299" 
d="M175 244q-21 -45 -36 -90.5t-19 -94.5q-1 -5 -1 -11t-2 -11q-5 -28 -31 -29q-24 -3 -34 23q-8 23 -14 46.5t-11 47.5q-8 38 -14.5 76.5t-11.5 76.5q-1 8 -1 15.5v15.5q1 14 9.5 23t19.5 11q12 1 22.5 -6.5t12.5 -21.5q3 -19 4.5 -37.5t3.5 -37.5q2 -12 4 -24.5t4 -26.5
q5 5 6.5 9.5t3.5 9.5q11 27 23 53.5t29 50.5q9 12 20 21t28 7q18 -2 27.5 -14t15.5 -28q8 -25 12 -51t6 -52q3 -35 5 -69t4 -69v-13q-3 -27 -29 -29q-24 -2 -31 23q-5 14 -5.5 27.5t-1.5 27.5q-2 35 -4 69.5t-7 69.5q-1 3 -1.5 6t-5.5 6z" />
    <glyph glyph-name="o" unicode="o" horiz-adv-x="245" 
d="M0 174q3 53 19 100q7 19 23.5 32t36 17.5t40.5 0t37 -19.5q33 -31 46 -64.5t11 -66.5t-16.5 -63.5t-37.5 -55.5q-21 -23 -48 -24.5t-52 17.5q-33 24 -45 57.5t-14 69.5zM149 179q-1 23 -8.5 39.5t-20.5 30.5q-5 5 -9 6t-8 -7q-5 -11 -19 -16q-13 -3 -15 -18q-2 -8 -3 -15
t-1 -14q0 -22 4 -42t20 -37t31 1q14 17 20.5 35.5t8.5 36.5z" />
    <glyph glyph-name="p" unicode="p" horiz-adv-x="216" 
d="M0 315q15 10 35.5 12.5t41.5 -2t39.5 -16t29.5 -27.5q33 -48 27 -105q-5 -47 -22 -87.5t-56 -69.5q-10 -7 -8 -21l4 -32l4 -32q3 -16 -3 -29q-9 -17 -28 -17q-12 1 -19 7.5t-10 16.5q-5 14 -6 29t-4 29q-9 56 -13 111.5t-9 112.5l-3 12v108zM76 99q33 39 33 91
q0 17 -4 34t-20 29q-3 3 -7 5.5t-9 0.5q-6 -2 -6 -7v-9l2 -24l2 -24z" />
    <glyph glyph-name="q" unicode="q" horiz-adv-x="249" 
d="M126 102q-5 0 -6 -1q-17 -15 -35.5 -18.5t-34 3t-28 22t-17.5 37.5q-10 41 -1.5 79.5t32.5 73.5q13 19 32 26.5t42 1.5q16 -4 34 -1q17 4 27 -5.5t12 -27.5t1.5 -35.5t-1.5 -34.5q-2 -32 2 -63.5t7 -63.5q4 -37 10 -73.5t12 -73.5q3 -15 -1 -29q-6 -17 -25 -19
q-19 -3 -30 14q-3 5 -4 11t-3 12q-8 41 -14 82t-11 83zM64 183q1 -4 0.5 -7t0.5 -6q2 -5 2.5 -11t7.5 -8q5 -2 8.5 3t5.5 9q12 17 17.5 36t8.5 39q1 7 0 14t-11 9q-10 3 -15.5 -1.5t-9.5 -12.5q-7 -15 -10 -31t-5 -33z" />
    <glyph glyph-name="r" unicode="r" horiz-adv-x="253" 
d="M0 286q1 8 1.5 15.5t2.5 15.5q2 11 9 18.5t19 8.5q26 3 34 -20q5 -14 10 -14.5t16 8.5q13 11 30 15t34 1t32 -12t24 -24q6 -9 6.5 -18.5t-7.5 -18.5q-15 -19 -38 -8q-5 2 -11 7q-18 11 -27 9t-19 -22q-11 -23 -16.5 -48.5t-6.5 -51.5v-27t-2 -26q-6 -33 -32 -35
q-12 0 -21.5 8.5t-12.5 24.5q-7 29 -10.5 58.5t-6.5 58.5l-4 38t-4 39z" />
    <glyph glyph-name="s" unicode="s" horiz-adv-x="227" 
d="M98 18q-34 0 -65 12q-14 5 -20 15.5t-2 23.5q3 12 14 18t25 3q14 -2 27.5 -5.5t27.5 -2.5q19 2 8 16q-9 14 -20.5 24.5t-24.5 21.5q-23 21 -42.5 44.5t-24.5 56.5q-3 22 3.5 44t22 38.5t38.5 24.5t52 1q15 -3 25 -14t14.5 -25t2.5 -28.5t-12 -26.5q-12 -15 -31 -11
q-11 2 -16 9t-8 16q-1 5 -0.5 10.5t-7.5 5.5q-6 1 -10 -4t-6 -11q-7 -18 3 -38q6 -11 14 -19.5t17 -16.5q18 -15 34.5 -30.5t30.5 -35.5q13 -18 17 -36q14 -47 -30 -69q-25 -13 -56 -11z" />
    <glyph glyph-name="t" unicode="t" horiz-adv-x="264" 
d="M164 274q-17 0 -26.5 -0.5t-13 -5t-2 -13.5t4.5 -26q4 -22 8.5 -43t11.5 -42q4 -13 8.5 -24.5t16.5 -20.5q10 -8 9 -21.5t-10 -23.5q-10 -11 -23.5 -12t-25.5 7q-8 7 -13.5 16t-9.5 19q-15 39 -24 78.5t-17 80.5q-3 20 -7 23t-24 1q-11 -1 -21.5 1t-18.5 12
q-12 15 -3.5 32t29.5 22q8 2 16.5 -0.5t13.5 7.5q3 7 1 15t-3 16q-2 26 -3.5 51.5t-2.5 51.5q-2 17 8 29t24 13q14 0 23.5 -11t9.5 -29q0 -29 2.5 -58.5t4.5 -59.5q1 -19 21 -19q17 1 35 1t35 -3q32 -6 32 -32q0 -13 -9 -21t-24 -10q-8 -2 -16.5 -1.5t-16.5 0.5z" />
    <glyph glyph-name="u" unicode="u" horiz-adv-x="256" 
d="M223 222q-2 -36 -9 -71t-27 -67q-10 -19 -28 -34q-22 -17 -45.5 -16.5t-45.5 18.5t-34.5 42t-20.5 50q-11 39 -12.5 78.5t2.5 79.5q2 19 11.5 28t23.5 8q15 -2 24 -14t7 -30q-2 -21 -2.5 -42t0.5 -42q2 -25 7.5 -48t19.5 -44q22 -33 39 1q20 38 25 78t-9 82q-4 10 -5 15
q-3 14 2.5 25.5t16.5 15.5q12 5 23.5 -0.5t17.5 -19.5q9 -22 14.5 -45t4.5 -48z" />
    <glyph glyph-name="v" unicode="v" horiz-adv-x="256" 
d="M122 155q9 42 17 82.5t19 80.5q2 8 4 15.5t5 14.5q6 14 17.5 19.5t22.5 1.5q12 -5 18 -16t2 -25q-8 -28 -14.5 -55.5t-11.5 -56.5q-5 -30 -9.5 -60t-9.5 -60q-2 -8 -3.5 -15.5t-3.5 -15.5q-4 -14 -11.5 -23.5t-22.5 -11.5q-14 -2 -23.5 6t-16.5 19q-13 19 -22.5 39.5
t-18.5 40.5q-17 38 -30 77.5t-27 78.5q-1 3 -1.5 6.5t-1.5 6.5q-2 15 5.5 26.5t19.5 13.5q29 6 39 -26q8 -29 18 -58.5t21 -58.5q5 -12 9.5 -23.5t9.5 -22.5z" />
    <glyph glyph-name="w" unicode="w" horiz-adv-x="317" 
d="M85 130q2 15 3.5 29.5t3.5 29.5q4 33 31 36q26 5 39 -29q8 -19 14.5 -37.5t16.5 -35.5q5 -9 10 -16q2 -2 3.5 -4.5t4.5 -1.5t3.5 4t1.5 6q7 29 1.5 57.5t-12.5 56.5q-4 15 -8.5 29.5t-8.5 29.5q-4 14 1.5 24.5t16.5 15.5q12 5 24 0.5t17 -18.5q8 -26 16 -51t13.5 -51
t6.5 -52.5t-4 -53.5q-2 -13 -7 -25.5t-13 -23.5q-17 -21 -40.5 -22.5t-45.5 17.5q-8 6 -13 14t-14 12q-3 -9 -5.5 -17.5t-5.5 -17.5q-5 -14 -13.5 -23.5t-25.5 -11.5t-27.5 6t-18.5 22q-17 29 -24 60t-12 63q-6 34 -10.5 67.5t-3.5 68.5q1 18 10.5 28t24.5 8q29 -3 29 -38
q0 -37 5.5 -73t11.5 -72q0 -8 4 -10z" />
    <glyph glyph-name="x" unicode="x" horiz-adv-x="288" 
d="M250 312q-2 -26 -21 -32q-11 -3 -17.5 -9t-11.5 -14q-8 -14 -17 -26.5t-18 -26.5q-9 -12 1 -25q14 -19 28 -37.5t34 -32.5t9 -38q-5 -11 -16 -15.5t-23 -1.5q-11 3 -19 10t-16 15q-8 10 -16 19.5t-16 19.5q-5 8 -8.5 7t-7.5 -9q-14 -26 -25.5 -53t-21.5 -55
q-2 -5 -4.5 -10t-5.5 -10q-7 -11 -17.5 -15t-21.5 1t-16.5 15.5t-0.5 24.5q9 30 20.5 59.5t28.5 55.5q21 32 21.5 59.5t-27.5 55.5q-8 8 -13.5 17.5t-12.5 18.5q-20 29 3 48q11 8 24.5 6t24.5 -15q18 -25 37 -55q6 -8 10 -8t10 8q12 19 24.5 37t29.5 33q17 14 36.5 11.5
t27.5 -21.5q2 -3 2.5 -6.5t1.5 -5.5z" />
    <glyph glyph-name="y" unicode="y" horiz-adv-x="231" 
d="M145 -126q-18 11 -23 20.5t-2 30.5q5 29 6.5 58.5t-1.5 59.5q-34 -15 -56 -7t-38 43q-20 44 -26.5 90t-4.5 94q1 14 9.5 22t21.5 8q31 0 33 -33q1 -19 1 -37.5t3 -37.5q3 -18 6.5 -35.5t12.5 -35.5q7 11 9 22.5t4 22.5q3 28 5 55t0 55q-2 17 2 28q7 22 28 22q22 1 31 -19
q4 -10 4 -16q8 -76 16 -151.5t4 -152.5q0 -17 -2 -32.5t-4 -31.5q-3 -32 -31 -42h-8z" />
    <glyph glyph-name="z" unicode="z" horiz-adv-x="304" 
d="M115 140q29 11 54.5 21.5t51.5 18.5q4 1 7 2t7 2q29 6 39 -20q5 -11 -0.5 -22.5t-17.5 -16.5q-11 -5 -23 -8t-23 -8l-114 -48q-6 -3 -12.5 -5.5t-13.5 -4.5q-22 -6 -37 10q-17 15 -7 37q5 15 11.5 29.5t13.5 28.5q30 64 65 124q2 3 3.5 5.5t0.5 7.5q-11 0 -22 -1t-22 -7
q-11 -7 -23 -7.5t-25 1.5q-27 5 -28 30t24 33q23 6 45.5 10.5t45.5 6.5l20 2t20 1q32 2 44.5 -17.5t-1.5 -48.5q-17 -33 -35.5 -66t-36.5 -67q-2 -5 -4.5 -10z" />
    <glyph glyph-name="braceleft" unicode="{" 
d="M145 181q2 -17 -2.5 -37.5t-21.5 -38.5q-4 -5 -3 -9t3 -8q19 -32 22 -66.5t5 -69.5q1 -5 1 -10t1 -10q10 -51 60 -34q35 12 47 -14q11 -29 -23 -46q-21 -10 -42.5 -10t-41 8t-35 24t-22.5 39q-7 20 -9.5 40.5t-1.5 40.5q1 41 -19 80q-4 7 -8 12.5t-10 10.5
q-16 14 -15.5 30.5t19.5 23.5q13 5 20 12t9.5 16t2 18.5t-0.5 20.5q-2 45 -11.5 86.5t-14.5 85.5q-3 23 -2.5 45t7.5 44q5 16 15 25.5t27 11.5q27 5 39 -20q13 -25 -11 -43q-13 -9 -13 -28q0 -23 4 -45.5t9 -45.5q8 -32 12 -65.5t4 -73.5z" />
    <glyph glyph-name="bar" unicode="|" horiz-adv-x="144" 
d="M33 368v90q1 17 9.5 27t21.5 10q14 1 22.5 -8t11.5 -26q3 -13 1.5 -25t-1.5 -25q-2 -69 0 -137.5t6 -137.5q2 -42 2.5 -83t2.5 -83l2 -22t0 -22q0 -17 -9.5 -27t-23.5 -10t-22.5 9.5t-9.5 26.5q-2 26 -2 52.5t-1 52.5q-5 85 -6 169t-4 169z" />
    <glyph glyph-name="braceright" unicode="}" 
d="M144 181q1 40 5 73.5t11 65.5q5 23 9.5 45.5t4.5 45.5q-1 8 -3.5 15.5t-10.5 12.5q-11 8 -13.5 20t2.5 23q12 25 40 20q31 -3 41 -37q8 -22 8.5 -44t-2.5 -45q-6 -44 -15.5 -85.5t-11.5 -86.5q0 -11 -0.5 -20.5t2 -18.5t9 -16t20.5 -12q19 -7 19.5 -23.5t-15.5 -30.5
q-11 -9 -17 -23q-20 -37 -19 -80q1 -20 -1.5 -40.5t-9.5 -40.5q-8 -23 -23 -39t-34.5 -24t-41 -8t-42.5 10q-17 8 -23 20t0 26q11 27 47 14q50 -17 59 34q1 5 1.5 10t0.5 10q1 18 2 35.5t3.5 34.5t7.5 33.5t15 32.5q6 9 -1 17q-17 18 -21 38.5t-3 37.5z" />
    <glyph glyph-name="asciitilde" unicode="~" horiz-adv-x="488" 
d="M144 203q17 -2 35.5 -8t36.5 -15q23 -13 45 -26.5t46 -24.5q30 -13 47 -9t38 28q10 13 21 23q21 16 39 0q9 -7 11.5 -16.5t-3.5 -19.5q-11 -19 -26.5 -36.5t-34.5 -29t-42 -15t-50 5.5q-26 9 -50 22t-47 27q-13 8 -25 14.5t-26 10.5q-52 17 -66 -35q-8 -29 -36 -24
q-12 2 -20.5 13.5t-6.5 25.5q6 47 47 71q14 9 30.5 12.5t36.5 5.5z" />
    <glyph glyph-name="exclamdown" unicode="&#xa1;" horiz-adv-x="141" 
d="M108 -35q0 -11 0.5 -22t1.5 -22t-1.5 -20t-10.5 -17q-14 -12 -31 -6q-20 8 -22 33q-2 20 -2 40.5t-1 40.5q-3 128 -12 256q-1 15 0 28q4 28 30 30q26 0 32 -28q2 -8 2.5 -17t1.5 -17q2 -38 4 -76.5t4 -76.5q1 -32 2.5 -61t1.5 -61v-4zM58 398q-13 0 -21.5 9t-7.5 22
q0 13 8 21t21 7q14 0 22.5 -8.5t7.5 -21.5q0 -11 -9.5 -20.5t-20.5 -8.5z" />
    <glyph glyph-name="cent" unicode="&#xa2;" horiz-adv-x="310" 
d="M95 189q0 -30 8 -57t31 -49q19 -17 46 -21t49 9q8 4 12 5q12 4 22 1.5t17 -13.5q11 -20 -6 -39q-8 -9 -19 -14.5t-22 -8.5q-25 -6 -25 -29q0 -3 -1 -5q-8 -25 -31 -25q-13 0 -21.5 7t-8.5 19q1 21 -9 31.5t-26 19.5q-28 16 -45 41t-25 55q-17 60 -9 115.5t37 109.5
q21 38 60 56q17 7 14 25q-1 10 -1 19t-1 19q-1 8 -1 15t2 15q7 25 30 25t31 -24q5 -15 4 -29.5t0 -29.5q0 -11 4 -19t17 -13q22 -8 32.5 -28.5t5.5 -43.5q-5 -25 -27 -26q-23 -3 -32 19q-8 18 -17.5 22t-27.5 -2q-14 -5 -23.5 -14.5t-16.5 -21.5q-14 -28 -20 -57t-7 -59z
" />
    <glyph glyph-name="sterling" unicode="&#xa3;" horiz-adv-x="498" 
d="M263 -66h-144h-11.5t-10.5 1q-24 4 -33 18.5t-1 37.5q11 32 23 63.5t21 63.5q3 12 4.5 18.5t-1 10t-9 4.5t-18.5 1h-17q-17 2 -27 10.5t-9 23.5q2 31 39 31h19.5t18.5 -2q26 -3 30 23q8 38 17 76t22 76q5 14 11 27.5t15 25.5q24 34 66 27q26 -4 48 -16.5t37.5 -31
t24.5 -42t9 -49.5q0 -15 -0.5 -29.5t-5.5 -28.5q-5 -17 -16 -25.5t-24 -5.5q-31 8 -22 46q3 12 3.5 24.5t-0.5 25.5q-1 23 -16.5 41.5t-38.5 24.5q-8 3 -12.5 -0.5t-7.5 -10.5q-10 -22 -17 -45t-13 -46q-5 -19 -8.5 -37.5t-8.5 -37.5q-3 -11 0.5 -15t14.5 -4l122 -4
q12 0 24 -2t23 -7q26 -13 19 -38q-3 -11 -13 -17t-23 -4q-43 7 -85.5 5t-84.5 3q-15 3 -20 -14q-8 -29 -17 -57.5t-20 -56.5q-4 -10 0 -12.5t12 -2.5h270q41 1 44 -28q1 -15 -11 -25.5t-32 -10.5l-80 -2t-80 -1z" />
    <glyph glyph-name="yen" unicode="&#xa5;" horiz-adv-x="467" 
d="M136 101h24t24 1q10 0 11 5t-2.5 6.5t-7.5 1.5q-25 5 -49 4t-49 0q-8 0 -15 0.5t-14 3.5q-21 8 -21 29q1 22 24 27q11 3 21 3t21 -1q18 0 36 -1t36 -1q5 -1 11.5 -2t8.5 7t2.5 18t-7.5 15q-24 16 -43 36.5t-34.5 43.5t-29 48t-26.5 49q-4 6 -8 11t-9 10q-11 12 -10 26.5
t13 24.5q11 9 23.5 6.5t22.5 -16.5q12 -18 22 -36.5t21 -38.5q13 -23 27.5 -45t31.5 -42q14 -17 22.5 -15.5t15.5 22.5q11 35 22 69.5t23 69.5q3 11 7 21t9 20q7 14 18 18t23 -1q11 -5 15 -16t-1 -25q-15 -39 -27 -78.5t-25 -79.5q-5 -14 -10 -28.5t-15 -27.5
q-11 -14 -11.5 -29t0.5 -30q0 -9 5 -11t12 -2l112 -4q8 0 15.5 -0.5t15.5 -4.5q24 -10 21 -33q-2 -13 -10.5 -18.5t-20.5 -5.5l-125 4q-3 0 -6 0.5t-5 0.5h-4.5t-3.5 -3q-1 -4 2 -5t5 -1q13 -3 25.5 -3h26.5t28 -1t28 -6q15 -5 21.5 -15.5t2.5 -21.5q-8 -27 -40 -21
q-23 5 -45 4t-45 1q-8 1 -10 -3t-2 -11v-68q-1 -44 -31 -44q-28 -1 -30 44q0 17 -1 34.5t-1 34.5q0 16 -17 16q-22 -1 -43.5 -0.5t-43.5 0.5q-17 0 -27.5 8.5t-9.5 22.5q2 29 38 29q11 1 21 0.5t21 -0.5z" />
    <glyph glyph-name="section" unicode="&#xa7;" horiz-adv-x="371" 
d="M340 161q-45 -68 -118 -56l8 -18v-26q-29 -45 -70.5 -55t-89.5 14q-12 6 -17.5 16.5t-1.5 21.5q4 12 15 17.5t25 1.5t28 -7.5t28 -1.5t16.5 7t-3.5 16t-14 20t-17 17q-26 23 -49.5 47.5t-37.5 56.5q-11 24 -12 48.5t6.5 46t23 39t38.5 27.5q19 8 42 8q4 30 21.5 54
t46.5 38q37 15 72 2q20 -7 29 -25.5t2 -38.5q-6 -20 -27 -23q-22 -2 -30 17q-5 13 -13 12.5t-16 -6.5q-15 -10 -20 -29t2 -39q7 -21 20 -37.5t30 -30.5q27 -23 49 -48.5t34 -59.5v-26zM144 325q-5 13 -13 12.5t-16 -6.5q-15 -10 -20 -29t2 -39q7 -21 20 -37.5t30 -30.5
l25 -22q12 9 29 4q14 -4 28 -7.5t28 -1.5t16.5 7t-3.5 16t-14 20t-17 17q-21 19 -40.5 38t-34.5 42q-15 3 -20 17z" />
    <glyph glyph-name="copyright" unicode="&#xa9;" horiz-adv-x="492" 
d="M240 30h-2q-92 2 -149 57q-57 56 -59 145q-1 45 15 84t47 71q30 30 68.5 46.5t81.5 16.5q40 0 78 -17.5t67.5 -47t48 -67t18.5 -76.5q0 -42 -15.5 -80.5t-45.5 -68.5q-30 -31 -69.5 -47t-83.5 -16zM242 415q-35 0 -67.5 -13.5t-57.5 -39.5q-26 -26 -39.5 -59t-12.5 -70
q0 -38 13 -68.5t36 -52.5t54.5 -34.5t70.5 -12.5h1q37 0 69.5 13.5t58.5 38.5q51 53 51 125q0 32 -15.5 63t-40.5 55.5t-56.5 39.5t-64.5 15zM184 231q0 16 1.5 32t6.5 32q3 12 8.5 23t15.5 19q20 18 41 8q22 -9 32 -28q4 -7 4 -16q0 -8 -4 -13t-11 -5q-14 -2 -17 14
q-2 9 -7 13q-13 11 -23 -3q-6 -11 -9 -21q-5 -26 -6 -52t6 -52q2 -5 3 -9t3 -8q5 -11 10.5 -13t16.5 0q13 2 17 -9q6 -11 -5 -19q-14 -11 -32 -5q-22 7 -34 28q-11 20 -14 41t-3 43z" />
    <glyph glyph-name="guillemotleft" unicode="&#xab;" horiz-adv-x="602" 
d="M262 310q17 1 26.5 -12.5t3.5 -29.5q-4 -11 -11 -17.5t-15 -13.5q-58 -53 -121 -106q-2 -2 -6 -4t-2 -7q2 -4 5.5 -4.5t7.5 -1.5q44 -13 85 -30.5t83 -37.5l8 -4t8 -5q11 -7 14 -18t-3 -22q-12 -24 -37 -15q-14 5 -27 11t-27 12q-45 21 -91.5 37.5t-95.5 24.5
q-14 3 -23.5 9.5t-12.5 20.5t3.5 23.5t16.5 17.5q46 35 89 73.5t86 76.5q8 8 16.5 14.5t19.5 7.5zM492 310q17 1 26.5 -12.5t3.5 -29.5q-4 -11 -11 -17.5t-15 -13.5q-58 -53 -121 -106q-2 -2 -6 -4t-2 -7q2 -4 5.5 -4.5t7.5 -1.5q44 -13 85 -30.5t83 -37.5l8 -4t8 -5
q11 -7 14 -18t-3 -22q-12 -24 -37 -15q-14 5 -27 11t-27 12q-45 21 -91.5 37.5t-95.5 24.5q-14 3 -23.5 9.5t-12.5 20.5t3.5 23.5t16.5 17.5q46 35 89 73.5t86 76.5q8 8 16.5 14.5t19.5 7.5z" />
    <glyph glyph-name="registered" unicode="&#xae;" horiz-adv-x="492" 
d="M240 38h-2q-92 2 -149 57q-57 56 -59 145q-1 45 15 84t47 71q30 30 68.5 46.5t81.5 16.5q40 0 78 -17.5t67.5 -47t48 -67t18.5 -76.5q0 -42 -15.5 -80.5t-45.5 -68.5q-30 -31 -69.5 -47t-83.5 -16zM242 423q-35 0 -67.5 -13.5t-57.5 -39.5q-26 -26 -39.5 -59t-12.5 -70
q0 -38 13 -68.5t36 -52.5t54.5 -34.5t70.5 -12.5h1q37 0 69.5 13.5t58.5 38.5q51 53 51 125q0 32 -15.5 63t-40.5 55.5t-56.5 39.5t-64.5 15zM259 190h-22q-8 0 -7 -8v-6.5t1 -6.5q0 -5 0.5 -8.5t-1.5 -7.5q-2 -6 -6.5 -10t-9.5 -3q-14 0 -15 15q-1 8 -1.5 15.5t-0.5 15.5
q-3 26 -5 52.5t-3 52.5q-1 7 -1.5 13.5t-4.5 13.5q-3 5 1 16.5t9 15.5q9 5 16 1q5 -4 10.5 -4.5t10.5 0.5q21 2 38 -1q20 -3 27.5 -15.5t-0.5 -31.5t-20 -35l-24 -32l-4 -4t0 -4q1 -2 4 -2t5 1q17 0 32.5 0.5t32.5 1.5q8 2 15 -1q12 -3 12 -15t-12 -15q-6 -2 -9 -2h-68v-2z
M223 252q12 14 22 27.5t18 28.5q4 6 -4 6h-32q-7 0 -7 -6q1 -14 1.5 -28t1.5 -28z" />
    <glyph glyph-name="degree" unicode="&#xb0;" horiz-adv-x="185" 
d="M94 273h-1q-27 0 -44.5 17t-17.5 43q0 28 18 46q19 19 45 19q24 0 43.5 -19t19.5 -43q0 -28 -18 -44q-19 -19 -45 -19zM94 369q-14 0 -24 -10t-10 -25t9 -23.5t24 -8.5q16 0 25 10q10 9 10 24q0 12 -11 22.5t-23 10.5z" />
    <glyph glyph-name="twosuperior" unicode="&#xb2;" horiz-adv-x="271" 
d="M115 264q26 5 51.5 9.5t50.5 12.5q22 7 29 -12q8 -20 -12 -30q-7 -5 -19 -7q-9 -2 -19 -4t-19 -3q-26 -5 -51.5 -10.5t-49.5 -12.5q-4 0 -5 -1q-9 -2 -17 0t-13 10q-9 17 2 31q21 29 40.5 59.5t33.5 62.5q8 15 14.5 32t4.5 35q0 14 -5 16.5t-19 -1.5q-7 -4 -13 -8
t-13 -11t-7 -18q6 -21 -17 -26q-9 -3 -17 0.5t-12 13.5q-5 10 -4 19t6 20q28 51 84 58q20 5 34 -3.5t22 -26.5q14 -30 6 -62q-8 -34 -23.5 -64t-33.5 -60q-3 -4 -4.5 -7t-4.5 -7v-5z" />
    <glyph glyph-name="threesuperior" unicode="&#xb3;" horiz-adv-x="236" 
d="M207 325q0 -35 -24.5 -65t-61.5 -44q-10 -3 -19.5 -5.5t-19.5 -2.5q-8 -2 -15 -1t-13 7q-10 8 -8 21t15 16q10 4 18 4q26 1 44 13t30 32q12 14 7 29q-2 10 -6 18t-14 10q-11 2 -22.5 1t-19.5 -11q-21 -23 -37 -8q-9 8 -9.5 19.5t9.5 22.5q11 11 17.5 25.5t13.5 28.5l2 8
t-4 7q-5 1 -8 -2t-5 -6q-3 -6 -3 -12q-8 -16 -25 -16q-8 0 -13 5t-6 13q-4 14 2 26.5t17 22.5q17 15 41 17q20 3 34 -9t16 -33q2 -11 0 -21t-6 -21q-2 -5 -1 -6.5t7 -3.5q31 -5 49 -27t18 -52z" />
    <glyph glyph-name="periodcentered" unicode="&#xb7;" horiz-adv-x="119" 
d="M90 201q0 -13 -9 -21.5t-22 -8.5t-21 8t-8 20q0 13 8.5 22t21.5 9q11 0 20.5 -9t9.5 -20z" />
    <glyph glyph-name="onesuperior" unicode="&#xb9;" horiz-adv-x="134" 
d="M30 439q2 13 8 26.5t17 24.5q9 9 21 4.5t14 -18.5q3 -23 3 -51q2 -37 2.5 -75t2.5 -76q1 -19 6 -43q2 -9 -1.5 -16.5t-10.5 -9.5q-10 -2 -17.5 3t-9.5 14q-5 17 -6 33t-1 33q-4 28 -4.5 55.5t-0.5 55.5q0 6 -1.5 11t-9.5 6q-7 2 -8.5 8t-3.5 15z" />
    <glyph glyph-name="guillemotright" unicode="&#xbb;" horiz-adv-x="613" 
d="M346 310q11 -1 19 -7.5t16 -14.5q44 -38 86.5 -76.5t88.5 -73.5q11 -8 17.5 -17.5t3.5 -23.5t-12.5 -20.5t-23.5 -9.5q-49 -8 -95.5 -24.5t-91.5 -37.5q-14 -6 -27 -12t-27 -11q-26 -10 -38 15q-5 11 -2 22t14 18q4 3 8 5l8 4q41 20 82.5 37.5t85.5 30.5q3 1 7 1.5t5 4.5
q2 5 -1.5 7t-6.5 4q-30 26 -60 52.5t-60 53.5q-8 7 -15 13.5t-11 17.5q-6 16 3 29.5t27 12.5zM116 310q11 -1 19 -7.5t16 -14.5q44 -38 86.5 -76.5t88.5 -73.5q11 -8 17.5 -17.5t3.5 -23.5t-12.5 -20.5t-23.5 -9.5q-49 -8 -95.5 -24.5t-91.5 -37.5q-14 -6 -27 -12t-27 -11
q-26 -10 -38 15q-5 11 -2 22t14 18q4 3 8 5l8 4q41 20 82.5 37.5t85.5 30.5q3 1 7 1.5t5 4.5q2 5 -1.5 7t-6.5 4q-30 26 -60 52.5t-60 53.5q-8 7 -15 13.5t-11 17.5q-6 16 3 29.5t27 12.5z" />
    <glyph glyph-name="onequarter" unicode="&#xbc;" horiz-adv-x="398" 
d="M50 443q3 14 8.5 27t16.5 24q10 10 22 5.5t14 -18.5q2 -13 2.5 -25.5t1.5 -25.5q1 -39 1.5 -78t3.5 -77q1 -23 6 -45t-13 -27q-9 -2 -17 2.5t-11 15.5q-4 17 -5.5 33.5t-2.5 33.5q-2 29 -2.5 57t0.5 57q0 6 -2 10.5t-10 6.5q-11 4 -13 24zM312 -33v44q0 11 -11 11
q-13 -2 -26 -2t-25 2q-42 6 -29 45q8 22 15.5 43.5t14.5 43.5q2 5 2 10t-2 10q-4 8 -1 15.5t9 13.5q5 5 10.5 8t13.5 1q14 -5 16 -22q1 -14 -2.5 -27t-8.5 -27q-5 -16 -10.5 -31.5t-11.5 -31.5q-3 -11 8 -10h26t10.5 2.5t2 10t-0.5 23.5v12.5t2 11.5q5 15 18 15q15 1 21 -13
q3 -7 2.5 -14.5t-0.5 -14.5q-2 -51 -2.5 -100.5t4.5 -100.5q1 -3 1 -6.5v-6.5q-2 -18 -18 -20q-8 -1 -13.5 3t-7.5 13q-4 15 -5.5 31t-1.5 31v27zM311 545q20 -11 25.5 -22.5t-2.5 -34.5q-20 -60 -45 -118t-49 -117q-35 -85 -71 -169t-69 -171q-17 -43 -47 -32
q-30 12 -13 56q51 131 106 258.5t107 258.5q5 14 9 27t8 27q8 29 34 37h7z" />
    <glyph glyph-name="onehalf" unicode="&#xbd;" horiz-adv-x="440" 
d="M50 443q3 14 8.5 27t16.5 24q10 10 22 5.5t14 -18.5q2 -13 2.5 -25.5t1.5 -25.5q1 -39 1.5 -78t3.5 -77q1 -23 6 -45t-13 -27q-9 -2 -17 2.5t-11 15.5q-4 17 -5.5 33.5t-2.5 33.5q-2 29 -2.5 57t0.5 57q0 6 -2 10.5t-10 6.5q-11 4 -13 24zM311 545q20 -11 25.5 -22.5
t-2.5 -34.5q-20 -60 -45 -118t-49 -117q-35 -85 -71 -169t-69 -171q-17 -43 -47 -32q-30 12 -13 56q51 131 106 258.5t107 258.5q5 14 9 27t8 27q8 29 34 37h7zM285 -76q26 5 51.5 9.5t50.5 12.5q22 7 29 -12q8 -20 -12 -30q-7 -5 -19 -7q-9 -2 -19 -4t-19 -3
q-26 -5 -51.5 -10.5t-49.5 -12.5q-4 0 -5 -1q-9 -2 -17 0t-13 10q-9 17 2 31q21 29 40.5 59.5t33.5 62.5q8 15 14.5 32t4.5 35q0 14 -5 16.5t-19 -1.5q-7 -4 -13 -8t-13 -11t-7 -18q6 -21 -17 -26q-9 -3 -17 0.5t-12 13.5q-5 10 -4 19t6 20q28 51 84 58q20 5 34 -3.5
t22 -26.5q14 -30 6 -62q-8 -34 -23.5 -64t-33.5 -60q-3 -4 -4.5 -7t-4.5 -7v-5z" />
    <glyph glyph-name="threequarters" unicode="&#xbe;" horiz-adv-x="440" 
d="M341 545q20 -11 25.5 -22.5t-2.5 -34.5q-20 -60 -45 -118t-49 -117q-35 -85 -71 -169t-69 -171q-17 -43 -47 -32q-30 12 -13 56q51 131 106 258.5t107 258.5q5 14 9 27t8 27q8 29 34 37h7zM207 325q0 -35 -24.5 -65t-61.5 -44q-10 -3 -19.5 -5.5t-19.5 -2.5q-8 -2 -15 -1
t-13 7q-10 8 -8 21t15 16q10 4 18 4q26 1 44 13t30 32q12 14 7 29q-2 10 -6 18t-14 10q-11 2 -22.5 1t-19.5 -11q-21 -23 -37 -8q-9 8 -9.5 19.5t9.5 22.5q11 11 17.5 25.5t13.5 28.5l2 8t-4 7q-5 1 -8 -2t-5 -6q-3 -6 -3 -12q-8 -16 -25 -16q-8 0 -13 5t-6 13q-4 14 2 26.5
t17 22.5q17 15 41 17q20 3 34 -9t16 -33q2 -11 0 -21t-6 -21q-2 -5 -1 -6.5t7 -3.5q31 -5 49 -27t18 -52zM342 -33v44q0 11 -11 11q-13 -2 -26 -2t-25 2q-42 6 -29 45q8 22 15.5 43.5t14.5 43.5q2 5 2 10t-2 10q-4 8 -1 15.5t9 13.5q5 5 10.5 8t13.5 1q14 -5 16 -22
q1 -14 -2.5 -27t-8.5 -27q-5 -16 -10.5 -31.5t-11.5 -31.5q-3 -11 8 -10h26t10.5 2.5t2 10t-0.5 23.5v12.5t2 11.5q5 15 18 15q15 1 21 -13q3 -7 2.5 -14.5t-0.5 -14.5q-2 -51 -2.5 -100.5t4.5 -100.5q1 -3 1 -6.5v-6.5q-2 -18 -18 -20q-8 -1 -13.5 3t-7.5 13q-4 15 -5.5 31
t-1.5 31v27z" />
    <glyph glyph-name="questiondown" unicode="&#xbf;" horiz-adv-x="297" 
d="M35 -23q2 32 12 59.5t22 53.5q14 33 29.5 65.5t23.5 68.5q4 17 5.5 34t-0.5 35q-2 16 4.5 26t18.5 13q29 5 39 -26q5 -17 4.5 -33t-2.5 -33q-8 -50 -27.5 -95t-40.5 -90q-7 -16 -13 -31.5t-9 -32.5q-9 -55 45 -46q20 4 35.5 12.5t19.5 32.5q5 23 30 23q23 -1 30 -26
q4 -13 1 -24t-9 -22q-11 -19 -31 -33.5t-43.5 -22t-48 -7t-43.5 9.5q-29 14 -39.5 37.5t-12.5 51.5zM139 450q13 0 21.5 -8.5t9.5 -21.5q0 -12 -8 -20.5t-21 -9.5t-22 7.5t-9 21.5q-1 13 7.5 21.5t21.5 9.5z" />
    <glyph glyph-name="multiply" unicode="&#xd7;" horiz-adv-x="323" 
d="M280 312q-2 -26 -21 -32q-11 -3 -17.5 -9t-11.5 -14q-8 -14 -17 -26.5t-18 -26.5q-9 -12 1 -25q14 -19 28 -37.5t34 -32.5t9 -38q-5 -11 -16 -15.5t-23 -1.5q-11 3 -19 10t-16 15q-8 10 -16 19.5t-16 19.5q-5 8 -8.5 7t-7.5 -9q-14 -26 -25.5 -53t-21.5 -55
q-2 -5 -4.5 -10t-5.5 -10q-7 -11 -17.5 -15t-21.5 1t-16.5 15.5t-0.5 24.5q9 30 20.5 59.5t28.5 55.5q21 32 21.5 59.5t-27.5 55.5q-8 8 -13.5 17.5t-12.5 18.5q-20 29 3 48q11 8 24.5 6t24.5 -15q18 -25 37 -55q6 -8 10 -8t10 8q12 19 24.5 37t29.5 33q17 14 36.5 11.5
t27.5 -21.5q2 -3 2.5 -6.5t1.5 -5.5z" />
    <glyph glyph-name="dotlessi" unicode="&#x131;" horiz-adv-x="144" 
d="M108 66q1 -13 -6.5 -22t-18.5 -11q-12 -2 -22 4t-14 19q-8 23 -13 46.5t-10 46.5q-5 26 -9 52.5t-12 52.5q-5 13 -3 26.5t4 26.5q3 16 12.5 24t22.5 6q28 -2 30 -34q0 -23 3 -46t7 -46q5 -33 11.5 -66t15.5 -65q2 -10 2 -14zM33 363q-17 2 -27.5 14.5t-9.5 29.5
q2 17 14.5 27.5t29.5 8.5t27 -14.5t9 -29.5q-2 -17 -14 -27t-29 -9z" />
    <glyph glyph-name="endash" unicode="&#x2013;" horiz-adv-x="287" 
d="M140 163q-18 0 -36 -0.5t-36 0.5q-17 1 -27.5 9.5t-10.5 22.5t10.5 22.5t27.5 9.5q36 1 72 0t72 2q18 2 29 -7.5t11 -23.5q1 -14 -9 -23.5t-29 -10.5q-18 -1 -36.5 -0.5t-37.5 0.5v-1z" />
    <glyph glyph-name="emdash" unicode="&#x2014;" horiz-adv-x="385" 
d="M240 163h-33.5h-52.5h-52.5h-33.5q-17 1 -27.5 9.5t-10.5 22.5t10.5 22.5t27.5 9.5h51.5h70.5h70.5t51.5 2t29 -7.5t11 -23.5q1 -14 -9 -23.5t-29 -10.5q-18 -1 -36.5 -0.5t-37.5 0.5v-1z" />
    <glyph glyph-name="quoteleft" unicode="&#x2018;" horiz-adv-x="138" 
d="M39 325q1 17 -1 35t-6 37l-2 10t0 10q3 24 25 28q23 5 34 -17q2 -5 3.5 -11.5t3.5 -12.5q5 -26 6.5 -52.5t3.5 -52.5q0 -12 -3 -22q-7 -23 -29 -23q-23 -1 -31 22q-5 11 -4 23t0 26z" />
    <glyph glyph-name="quoteright" unicode="&#x2019;" horiz-adv-x="138" 
d="M97 377q-1 -17 1 -35t6 -37l2 -10t0 -10q-3 -24 -25 -28q-23 -5 -34 17q-2 5 -3.5 11.5t-3.5 12.5q-5 26 -6.5 52.5t-3.5 52.5q0 11 3 22q7 23 29 23q23 1 31 -22q5 -11 4 -23t0 -26z" />
    <glyph glyph-name="quotesinglbase" unicode="&#x201a;" horiz-adv-x="183" 
d="M145 77q2 -33 -6.5 -63t-28.5 -56l-9 -12q-13 -13 -26.5 -15t-24.5 8t-10.5 23.5t13.5 27.5q22 23 26 50.5t1 56.5q-1 7 -2 13.5t0 13.5q5 26 29 30q11 2 20.5 -6t13.5 -20t3.5 -25t0.5 -26z" />
    <glyph glyph-name="quotedblleft" unicode="&#x201c;" horiz-adv-x="235" 
d="M125 386q2 2 2.5 4t2.5 4q4 11 8 21t10 20q7 12 17.5 15.5t21.5 -1.5t16.5 -15.5t0.5 -24.5q-10 -28 -19.5 -55.5t-13.5 -57.5q-2 -25 -30 -25q-22 1 -29 26q-4 16 0 31q3 15 6.5 29.5t6.5 28.5zM125 386q-13 -20 -18.5 -43t-11.5 -46q-11 -41 -42 -33q-14 4 -20 17
t-1 33q5 18 10.5 36.5t12.5 37.5q6 19 17 36q12 20 37 14q21 -6 21 -31v-13q-2 -2 -2.5 -4t-2.5 -4z" />
    <glyph glyph-name="quotedblright" unicode="&#x201d;" horiz-adv-x="235" 
d="M111 330q-2 -2 -2.5 -4t-2.5 -4q-4 -11 -8 -21t-10 -20q-7 -12 -17.5 -15.5t-21.5 1.5t-16.5 15.5t-0.5 24.5q10 28 19.5 55.5t13.5 57.5q2 25 30 25q22 -1 29 -26q4 -16 0 -31q-3 -15 -6.5 -29.5t-6.5 -28.5zM111 330q13 20 18.5 43t11.5 46q11 41 42 33q14 -4 20 -17
t1 -33q-5 -18 -10.5 -36.5t-12.5 -37.5q-7 -20 -17 -36q-12 -20 -37 -14q-21 6 -21 31v13q2 2 2.5 4t2.5 4z" />
    <glyph glyph-name="quotedblbase" unicode="&#x201e;" horiz-adv-x="235" 
d="M111 10q13 20 18.5 43t11.5 46q11 41 42 33q14 -4 20 -17t1 -33q-5 -18 -10.5 -36.5t-12.5 -37.5q-7 -20 -17 -36q-12 -20 -37 -14q-21 6 -21 31v13q2 2 2.5 4t2.5 4q-2 -2 -2.5 -4t-2.5 -4q-4 -11 -8 -21t-10 -20q-7 -12 -17.5 -15.5t-21.5 1.5t-16.5 15.5t-0.5 24.5
q10 28 19.5 55.5t13.5 57.5q2 25 30 25q22 -1 29 -26q4 -16 0 -31q-3 -15 -6.5 -29.5t-6.5 -28.5z" />
    <glyph glyph-name="dagger" unicode="&#x2020;" horiz-adv-x="250" 
d="M85 458q1 17 9.5 27t21.5 10q14 1 22.5 -8t11.5 -26q3 -13 1.5 -25t-1.5 -25q0 -4 -0.5 -7.5t-0.5 -6.5h23.5t23.5 2q18 2 29 -7.5t11 -23.5q1 -14 -9 -23.5t-29 -10.5q-12 -1 -24 -1h-25q1 -50 2.5 -98.5t4.5 -98.5q2 -42 2.5 -83t2.5 -83l2 -22t0 -22q0 -17 -9.5 -27
t-23.5 -10t-22.5 9.5t-9.5 26.5q-2 26 -2 52.5t-1 52.5q-5 76 -6 151t-3 151h-17t-17 1q-17 1 -27.5 9.5t-10.5 22.5t10.5 22.5t27.5 9.5h33v61z" />
    <glyph glyph-name="bullet" unicode="&#x2022;" horiz-adv-x="189" 
d="M162 188q0 -28 -19.5 -46.5t-47.5 -18.5t-45.5 17.5t-17.5 43.5q0 28 18.5 47.5t46.5 19.5q25 0 45 -19t20 -44z" />
    <glyph glyph-name="guilsinglleft" unicode="&#x2039;" horiz-adv-x="384" 
d="M262 310q17 1 26.5 -12.5t3.5 -29.5q-4 -11 -11 -17.5t-15 -13.5q-58 -53 -121 -106q-2 -2 -6 -4t-2 -7q2 -4 5.5 -4.5t7.5 -1.5q44 -13 85 -30.5t83 -37.5l8 -4t8 -5q11 -7 14 -18t-3 -22q-12 -24 -37 -15q-14 5 -27 11t-27 12q-45 21 -91.5 37.5t-95.5 24.5
q-14 3 -23.5 9.5t-12.5 20.5t3.5 23.5t16.5 17.5q46 35 89 73.5t86 76.5q8 8 16.5 14.5t19.5 7.5z" />
    <glyph glyph-name="guilsinglright" unicode="&#x203a;" horiz-adv-x="384" 
d="M117 310q11 -1 19 -7.5t16 -14.5q44 -38 86.5 -76.5t88.5 -73.5q11 -8 17.5 -17.5t3.5 -23.5t-12.5 -20.5t-23.5 -9.5q-49 -8 -95.5 -24.5t-91.5 -37.5q-14 -6 -27 -12t-27 -11q-26 -10 -38 15q-5 11 -2 22t14 18q4 3 8 5l8 4q41 20 82.5 37.5t85.5 30.5q3 1 7 1.5t5 4.5
q2 5 -1.5 7t-6.5 4q-30 26 -60 52.5t-60 53.5q-8 7 -15 13.5t-11 17.5q-6 16 3 29.5t27 12.5z" />
    <glyph glyph-name="Euro" unicode="&#x20ac;" horiz-adv-x="402" 
d="M114 224q-10 -10 -20 -14.5t-23 0.5q-21 8 -25 27q-3 23 15 38q21 15 46 18q13 1 18.5 7.5t8.5 17.5q12 46 33.5 86.5t59.5 71.5q14 12 30.5 20.5t35.5 10.5q17 2 31.5 -1.5t26.5 -16.5q17 -21 6 -42q-14 -22 -41 -11q-12 6 -22.5 4t-20.5 -10q-30 -23 -46.5 -53
t-27.5 -65q-4 -10 9 -12q12 -1 24 -1.5t24 -2.5q38 -5 35 -37q-2 -14 -13 -21t-28 -6q-14 1 -26.5 1t-25.5 1q-15 0 -15 -13q0 -8 4.5 -9.5t10.5 -2.5q11 -1 21.5 -1t20.5 -2q15 -2 23.5 -13t6.5 -23q-2 -14 -12.5 -21.5t-26.5 -5.5q-20 1 -30.5 1t-14 -4.5t-1.5 -15
t7 -29.5q8 -29 20.5 -55.5t35.5 -46.5q18 -16 38 -24t46 1q14 5 25.5 0t16.5 -17q5 -11 -0.5 -23t-18.5 -19q-36 -17 -77 -6q-48 13 -78 43.5t-50 73.5q-23 50 -30 103q-3 19 -21 13q-5 -2 -9.5 -3.5t-9.5 -3.5q-16 -6 -29.5 -1t-18.5 19t1.5 26t22.5 19q11 4 23 6.5t24 3.5
q8 2 11 5.5t0 14.5z" />
    <glyph glyph-name="trademark" unicode="&#x2122;" horiz-adv-x="329" 
d="M262 350q-6 -11 -9.5 -21t-7.5 -20q0 -8 -8 -12q-10 -4 -20 6q-5 7 -8.5 14l-7.5 15q-2 -3 -2 -7l-3 -75q0 -6 -1 -9q-2 -5 -6 -9t-9 -2q-6 1 -9 5.5t-3 10.5q2 27 3 54l2 54q1 7 -3 15q-2 4 -2 8q-26 2 -52 0q-11 0 -8 -10v-3q3 -26 5.5 -52.5t6.5 -53.5q1 -4 5 -14
q2 -14 -9 -17q-11 -4 -16 9q-7 24 -9 50q-2 21 -4.5 41.5t-4.5 40.5q0 9 -8 7l-22 -2q-2 0 -3.5 -0.5t-3.5 -0.5q-15 0 -15 13q-2 11 13 13q7 1 13 1.5t13 0.5q8 1 10 7q4 8 11 8.5t12 -7.5q4 -5 10 -5h49q5 0 9.5 -0.5t9.5 -1.5v-1q9 6 16 -3q4 -5 7 -9t5 -10l19 -36
q3 0 3 5q10 23 21 41q2 3 4.5 5.5t4.5 5.5q7 9 17 5q11 -3 11 -15l1 -45v-92q0 -7 -1 -11q-3 -14 -15 -12q-13 2 -11 16q1 24 0.5 49t-0.5 50v6z" />
    </font>
</defs>
</svg>
